Экспериментатор / Experimenter (Майкл Алмерейда / Michael Almereyda) [2015, США, драма, биография, история, WEB-DLRip] DVO (Ozz)

Ответить на тему
 
Автор Сообщение

user ®

Стаж: 7 лет 7 месяцев

Сообщений: 20008

Пост Пост: #1 от 22-Дек-2015 15:00

[Цитировать]

Экспериментатор / Experimenter / WEB-DLRip
Страна: США
Жанр: драма, биография, история
Год выпуска: 2015
Продолжительность: 01:38:01
Перевод: Профессиональный (двухголосый закадровый) Ozz
Cубтитры: нет
Оригинальная аудиодорожка: нет
Режиссер: Майкл Алмерейда / Michael Almereyda
В ролях: Вайнона Райдер, Тэрин Мэннинг, Джон Легуизамо, Антон Ельчин, Питер Сарсгаард, Келлан Латс, Лори Сингер, Энтони Эдвардс, Деннис Хейсбёрт, Вонди Куртис-Холл
Описание: Знаменитый психолог Стенли Милграм, отец теории шести рукопожатий, в 1961 году провел ряд радикальных поведенческих экспериментов, в процессе которых проверялась готовность обычных людей подчиняться власти.
Сэмпл: http://multi-up.com/1080120
Качество видео: WEB-DLRip
Формат видео: AVI
Видео: 720x400 (1.80:1), 23.976 fps, XviD MPEG-4 ~1804 kbps avg, 0.26 bit/pixel
Аудио: 44.100 kHz, AC3 Dolby Digital, 2/0 (L,R) ch, ~192.00 kbps avg
MediaInfo
Общее
Полное имя                               : I:\Temp\Экспериментатор - Experimenter (2015)\EcsPer1mentat0r.2015.P.WEB-DLRip.1400MB.avi
Формат                                   : AVI
Формат/Информация                        : Audio Video Interleave
Размер файла                             : 1,37 Гбайт
Продолжительность                        : 1 ч. 38 м.
Общий поток                              : 2006 Кбит/сек
Программа кодирования                    : VirtualDubMod 1.5.10.2 (build 2540/release)
Библиотека кодирования                   : VirtualDubMod build 2540/release
Видео
Идентификатор                            : 0
Формат                                   : MPEG-4 Visual
Профиль формата                          : Advanced Simple@L5
Параметр BVOP формата                    : 2
Параметр QPel формата                    : Нет
Параметр GMC формата                     : Без точки перехода
Параметр матрицы формата                 : Default (H.263)
Режим смешивания                         : Сжатый битовый поток
Идентификатор кодека                     : XVID
Идентификатор кодека/Подсказка           : XviD
Продолжительность                        : 1 ч. 38 м.
Битрейт                                  : 1804 Кбит/сек
Ширина                                   : 720 пикселей
Высота                                   : 400 пикселей
Соотношение сторон                       : 16:9
Частота кадров                           : 23,976 (23976/1000) кадра/сек
Цветовое пространство                    : YUV
Субдискретизация насыщенности            : 4:2:0
Битовая глубина                          : 8 бит
Тип развёртки                            : Прогрессивная
Метод сжатия                             : С потерями
Бит/(Пиксели*Кадры)                      : 0.261
Размер потока                            : 1,24 Гбайт (90%)
Библиотека кодирования                   : XviD 66
Аудио
Идентификатор                            : 1
Формат                                   : AC-3
Формат/Информация                        : Audio Coding 3
Расширение режима                        : CM (complete main)
Параметр Endianness формата              : Big
Идентификатор кодека                     : 2000
Продолжительность                        : 1 ч. 38 м.
Вид битрейта                             : Постоянный
Битрейт                                  : 192 Кбит/сек
Каналы                                   : 2 канала
Расположение каналов                     : Front: L R
Частота                                  : 44,1 КГц
Частота кадров                           : 28,711 кадров/сек (1536 spf)
Метод сжатия                             : С потерями
Размер потока                            : 135 Мбайт (10%)
Выравнивание                             : Разделение по промежуткам
Продолжительность промежутка             : 42  мс. (1,00 видеокадр)
Время предзагрузки промежутка            : 500  мс.
Скриншот c названием фильма Скриншоты
Скачать

Скачать торрент!

Как скачивать? · Что такое торрент? · Рейтинг и ограничения

Сайт не распространяет и не хранит электронные версии произведений, а лишь предоставляет доступ к создаваемому пользователями каталогу ссылок на торрент-файлы, которые содержат только списки хеш-сумм

[Профиль] [ЛС]
Показать сообщения:    
Ответить на тему

Текущее время: Сегодня 06:29

Часовой пояс: GMT + 4



Вы не можете начинать темы
Вы не можете отвечать на сообщения
Вы не можете редактировать свои сообщения
Вы не можете удалять свои сообщения
Вы не можете голосовать в опросах
Вы не можете прикреплять файлы к сообщениям
Вы не можете скачивать файлы