Росита / Rosita (Фредерикке Аспёк / Frederikke Aspöck) [2015, Дания, драма, мелодрама, WEB-DLRip] Sub Rus (adelstein s) + Original Dan

Ответить на тему
 
Автор Сообщение

user ®

Стаж: 7 лет 7 месяцев

Сообщений: 20008

Пост Пост: #1 от 22-Дек-2015 02:39

[Цитировать]

Росита / Rosita
Страна: Дания
Жанр: драма, мелодрама
Год выпуска: 2015
Продолжительность: 01:27:41
Перевод: Субтитры
Автор перевода: adelstein_s
Cубтитры: русские, датские
Оригинальная аудиодорожка: датская
Режиссер: Фредерикке Аспёк / Frederikke Aspöck
В ролях: Миккель Боэ Фёльсгор, Мерседес Кабраль, Йенс Альбинус, Юлия Агнете Ванг, Мадс Риисом, Андерс Бринк Мадсен, Гирли Лоу Нильсен, Якоб Мот-Поульсен, Лисе Боструп
Описание: Йоханнес живёт вместе со своим отцом Ульриком, вдовцом средних лет, в небольшом рыбацком городке, где жизнь спокойна и размеренна, и не обещает никаких перспектив, кроме работы в рыбной промышленности. Ульрику не хватает любви и женского тепла, поэтому он организовал приезд красивой, двадцатишестилетней филиппинки Роситы, и поселил её у себя дома. Йоханнес невольно вовлекается в их отношения, поскольку отец не знает английский. Время идёт, Йоханнес и Росита становятся всё ближе к друг другу, и для всех главных героев близится пора принятия важных решений.
IMDb
Награды:
Серебряный Святой Георгий Московского международного кинофестиваля (2015)
в номинации "Лучший режиссёр"
Сэмпл
Качество видео: WEB-DLRip
Формат видео: AVI
Видео: 720x384 (1,875:1), 25 fps, DviX, ~1052 Kbps avg, 0,15 bit/pixel
Аудио: 48 kHz, AC3 Dolby Digital, 2 ch, ~192 kbps
Формат субтитров: softsub (SRT)
MediaInfo
General
Format : AVI
Format/Info : Audio Video Interleave
File size : 787 MiB
Duration : 1h 27mn
Overall bit rate : 1 255 Kbps
Video #0
ID : 0
Format : MPEG-4 Visual
Format profile : AdvancedSimple@L4
Format settings, BVOP : Yes
Format settings, QPel : No
Format settings, GMC : No warppoints
Format settings, Matrix : Default (H.263)
Codec ID : DIVX
Codec ID/Info : Project Mayo
Codec ID/Hint : DivX 4
Duration : 1h 27mn
Bit rate : 1 052 Kbps
Width : 720 pixels
Height : 384 pixels
Display aspect ratio : 1.875
Frame rate : 25.000 fps
Resolution : 24 bits
Colorimetry : 4:2:0
Scan type : Progressive
Bits/(Pixel*Frame) : 0.152
Stream size : 660 MiB (84%)
Writing library : XviD 64
Audio #1
ID : 1
Format : AC-3
Format/Info : Audio Coding 3
Codec ID : 2000
Duration : 1h 27mn
Bit rate mode : Constant
Bit rate : 192 Kbps
Channel(s) : 2 channels
Channel positions : L R
Sampling rate : 48.0 KHz
Stream size : 120 MiB (15%)
Alignment : Aligned on interleaves
Interleave, duration : 32 ms (0.80 video frame)
Пример субтитров
18
00:06:03,800 --> 00:06:06,080
- Привет, Сандра.
- Привет, Ульрик.
19
00:06:06,240 --> 00:06:09,160
Идём. Он не кусается.
20
00:06:18,000 --> 00:06:22,440
- Привет.
- Привет, Росита. Меня зовут Ульрик.
21
00:06:22,600 --> 00:06:26,880
Он не разговаривает по-английски,
скажи свою заготовку.
22
00:06:28,080 --> 00:06:32,320
Меня зовут Росита.
Я очень рада встретиться с тобой.
23
00:06:32,480 --> 00:06:36,880
Спасибо за то,
что ты пригласил меня в Данию.
24
00:06:37,040 --> 00:06:41,520
- Она упражнялась.
- Это я благодарю тебя.
25
00:06:41,680 --> 00:06:44,280
Спасибо за то, что ты приехала.
26
00:06:46,760 --> 00:06:50,320
- Я приготовил кофе.
- Мы не можем остаться.
27
00:06:50,480 --> 00:06:53,040
Мать Франка снова попала в больницу.
28
00:06:53,200 --> 00:06:56,440
- Новый тромб с левой стороны.
- По одной чашке спокойно можете выпить.
29
00:06:56,600 --> 00:07:00,640
Тебе надо приятно провести время
с Роситой, а мы не должны вам мешать.
30
00:07:01,640 --> 00:07:05,240
Пока-пока, Росита.
Ты знаешь, что тебе делать.
31
00:07:05,400 --> 00:07:08,000
Пока-пока, Ульрик.
32
00:07:46,160 --> 00:07:48,480
Это кухня.
33
00:07:58,320 --> 00:08:00,520
Это гостиная и...
34
00:08:12,440 --> 00:08:14,520
Это ванная комната.
35
00:08:14,680 --> 00:08:17,640
Здесь живёт Йоханнес.
36
00:08:17,800 --> 00:08:21,600
Это мой младший сын Йоханнес.
37
00:08:25,640 --> 00:08:27,920
Это спальня.
38
00:08:56,640 --> 00:08:59,640
Ты не выйдешь и не поздороваешься?
39
00:09:01,000 --> 00:09:04,680
Это мой младший сын Йоханнес.
Йоханнес, это Росита.
40
00:09:04,840 --> 00:09:07,240
- Привет.
- Привет.
Скриншоты
Скачать

Скачать торрент!

Как скачивать? · Что такое торрент? · Рейтинг и ограничения

Сайт не распространяет и не хранит электронные версии произведений, а лишь предоставляет доступ к создаваемому пользователями каталогу ссылок на торрент-файлы, которые содержат только списки хеш-сумм

[Профиль] [ЛС]
Показать сообщения:    
Ответить на тему

Текущее время: Сегодня 20:35

Часовой пояс: GMT + 4



Вы не можете начинать темы
Вы не можете отвечать на сообщения
Вы не можете редактировать свои сообщения
Вы не можете удалять свои сообщения
Вы не можете голосовать в опросах
Вы не можете прикреплять файлы к сообщениям
Вы не можете скачивать файлы