В моей смерти прошу винить Клаву К. (Николай Лебедев, Эрнест Ясан) [1979, мелодрама, DVB, AVC]

Ответить на тему
 
Автор Сообщение

user ®

Стаж: 7 лет 7 месяцев

Сообщений: 20008

Пост Пост: #1 от 21-Дек-2015 17:21

[Цитировать]

В моей смерти прошу винить Клаву К.
Жанр: мелодрама
Год выпуска: 1979
Продолжительность: 01:11:28
Режиссёр: Николай Лебедев, Эрнест Ясан
В ролях: Владимир Шевельков, Надежда Боргесани-Горшкова, Наталья Журавлева, Владимир Сидоров, Виктор Костецкий, Валентина Панина, Любовь Полищук, Вениамин Смехов, Ольга Волкова, Лена Хапшоносова, Максим Ясан, Андрей Мусатов, Ольга Озерецковская, Любовь Малиновская, Александр Анисимов, Антон Гранат
Описание: Сереже было всего четыре года, когда он влюбился в Клаву. Теперь обоим по пятнадцать, и Сережа любит Клаву по-прежнему, а она — больше не любит его, не любит его внимания, постоянной опеки, того, что, как
ей кажется, мешает ощущать себя личностью...
Качество видео: DVB-AVC
Формат видео: MKV
Видео: H.264/AVC, 720x576, 4:3, 25.00fps, 1875 Kbps
Аудио: MP2 2.0, 48 kHz, 192 kbps
Сравнение
[url=http://***/forum/viewtopic.php?t=2568246]http://***/forum/viewtopic.php?t=2568246[/url]
http://screenshotcomparison.com/comparison/155120
MediaInfo
General
Unique ID : 222503550155188848587330919262583566268 (0xA7649FFFD8506D8090BB4FE15FECAFBC)
Complete name : В моей смерти прошу винить Клаву К. (1979) DVB.mkv
Format : Matroska
Format version : Version 4 / Version 2
File size : 1.05 GiB
Duration : 1h 11mn
Overall bit rate : 2 107 Kbps
Encoded date : UTC 2015-12-21 10:12:46
Writing application : mkvmerge v8.1.0 ('Psychedelic Postcard') 64bit
Writing library : libebml v1.3.1 + libmatroska v1.4.2
Video
ID : 1
Format : AVC
Format/Info : Advanced Video Codec
Format profile : Main@L3.0
Format settings, CABAC : Yes
Format settings, ReFrames : 4 frames
Format settings, GOP : M=4, N=24
Codec ID : V_MPEG4/ISO/AVC
Duration : 1h 11mn
Bit rate : 1 873 Kbps
Width : 720 pixels
Height : 576 pixels
Display aspect ratio : 4:3
Original display aspect ratio : 4:3
Frame rate mode : Constant
Frame rate : 25.000 fps
Standard : Component
Color space : YUV
Chroma subsampling : 4:2:0
Bit depth : 8 bits
Scan type : Interlaced
Scan order : Top Field First
Bits/(Pixel*Frame) : 0.181
Stream size : 957 MiB (89%)
Default : No
Forced : No
Color primaries : BT.601 PAL
Transfer characteristics : BT.470 System B, BT.470 System G
Matrix coefficients : BT.601
Color range : Limited
DURATION : 01:11:28.160000000
NUMBER_OF_FRAMES : 107204
NUMBER_OF_BYTES : 1025355328
_STATISTICS_WRITING_APP : mkvmerge v8.1.0 ('Psychedelic Postcard') 64bit
_STATISTICS_WRITING_DATE_UTC : 2015-12-21 10:12:46
_STATISTICS_TAGS : BPS DURATION NUMBER_OF_FRAMES NUMBER_OF_BYTES
Audio
ID : 2
Format : MPEG Audio
Format version : Version 1
Format profile : Layer 2
Codec ID : A_MPEG/L2
Codec ID/Hint : MP2
Duration : 1h 11mn
Bit rate mode : Constant
Bit rate : 192 Kbps
Channel(s) : 2 channels
Sampling rate : 48.0 KHz
Compression mode : Lossy
Stream size : 98.1 MiB (9%)
Language : Russian
Default : Yes
Forced : No
DURATION : 01:11:28.128000000
NUMBER_OF_FRAMES : 178672
NUMBER_OF_BYTES : 102915072
_STATISTICS_WRITING_APP : mkvmerge v8.1.0 ('Psychedelic Postcard') 64bit
_STATISTICS_WRITING_DATE_UTC : 2015-12-21 10:12:46
_STATISTICS_TAGS : BPS DURATION NUMBER_OF_FRAMES NUMBER_OF_BYTES
Скриншоты
Скачать

Скачать торрент!

Как скачивать? · Что такое торрент? · Рейтинг и ограничения

Сайт не распространяет и не хранит электронные версии произведений, а лишь предоставляет доступ к создаваемому пользователями каталогу ссылок на торрент-файлы, которые содержат только списки хеш-сумм

[Профиль] [ЛС]
Показать сообщения:    
Ответить на тему

Текущее время: Сегодня 09:48

Часовой пояс: GMT + 4



Вы не можете начинать темы
Вы не можете отвечать на сообщения
Вы не можете редактировать свои сообщения
Вы не можете удалять свои сообщения
Вы не можете голосовать в опросах
Вы не можете прикреплять файлы к сообщениям
Вы не можете скачивать файлы