Брестская крепость / Крепость (Александр Котт) [2010, военный, драма, SATRip] телеверсия

Ответить на тему
 
Автор Сообщение

user ®

Стаж: 7 лет 7 месяцев

Сообщений: 20008

Пост Пост: #1 от 20-Дек-2015 22:48

[Цитировать]

Брестская крепость
Жанр: Военный, драма
Год выпуска: 2010
Продолжительность: 02:57:48
Режиссёр: Александр Котт
В ролях: Алексей Копашов, Андрей Мерзликин, Павел Деревянко, Александр Коршунов, Максим Костромыкин, Анна Цуканова-Котт, Сергей Цепов, Беник Аракелян, Михаил Павлик, Сергей Власов, Александр Сирин, Евгений Цыганов, Татьяна Камина, Вероника Никонова, Яна Есипович, Мадлен Джабраилова, Дмитрий Куличков, Александр Сапцов, Кирилл Болтаев, Олег Лопухов, Анатолий Кот, Нодар Джанелидзе, Максим Кречетов, Дмитрий Есеневич, Максим Литовченко, Валерий Иваков, Виктор Стрельченко, Матвей Шкуратов, Юрий Анпилогов, Евгений Харитонов, Антон Старовойтов, Ринат Ибрагимов, Павел Городницкий, Евгений Сангаджиев, Михаил Евланов, Сергей Таланов, Геннадий Гарбук, Тамара Ярмолич, Йохан Михаэль Ботт, Илья Мозговой, Евгений Ивкович, Александр Кузьмичёв, Алексей Дмитриев, Владимир Капустин
Описание: Фильм рассказывает о героической обороне Брестской крепости, которая приняла на себя первый удар немецко-фашистских захватчиков 22 июня 1941 года. С документальной точностью описываются события, происходившие в первые дни обороны. Фильм рассказывает о главных трёх очагах сопротивления, возглавляемых командиром полка Петром Гавриловым, комиссаром Ефимом Фоминым и начальником 9-й погранзаставы Андреем Кижеватовым...
Доп. информация:
Сэмпл: http://multi-up.com/1066156
Исходник: [url=http://***/forum/viewtopic.php?t=3652365]http://***/forum/viewtopic.php?t=3652365[/url]
Формат видео: AVI
Качество видео: SATRip
Видео: XviD, 624х352, 25fps, 1044kbps
Аудио: MPEG Layer 3, 2ch, 48000Hz, 128kbps
MediaInfo
General
Complete name : Brestskaa.Krepost.2010.O.SATRip.1400.CurHaJI.avi
Format : AVI
Format/Info : Audio Video Interleave
File size : 1.47 GiB
Duration : 2h 57mn
Overall bit rate : 1 182 Kbps
Movie name : Brestskaa.Krepost.2010.O.SATRip.1400.CurHaJI
Writing application : Lavf53.13.0
Writing library : VirtualDub build 35491/release
Video
ID : 0
Format : MPEG-4 Visual
Format profile : Advanced Simple@L5
Format settings, BVOP : 2
Format settings, QPel : No
Format settings, GMC : No warppoints
Format settings, Matrix : Custom
Codec ID : XVID
Codec ID/Hint : XviD
Duration : 2h 57mn
Bit rate : 1 044 Kbps
Width : 624 pixels
Height : 352 pixels
Display aspect ratio : 16:9
Frame rate : 25.000 fps
Color space : YUV
Chroma subsampling : 4:2:0
Bit depth : 8 bits
Scan type : Progressive
Compression mode : Lossy
Bits/(Pixel*Frame) : 0.190
Stream size : 1.30 GiB (88%)
Writing library : XviD 64
Audio
ID : 1
Format : MPEG Audio
Format version : Version 1
Format profile : Layer 3
Codec ID : 55
Codec ID/Hint : MP3
Duration : 2h 57mn
Bit rate mode : Constant
Bit rate : 128 Kbps
Channel(s) : 2 channels
Sampling rate : 48.0 KHz
Compression mode : Lossy
Stream size : 163 MiB (11%)
Alignment : Split accross interleaves
Interleave, duration : 40 ms (1.00 video frame)
Interleave, preload duration : 500 ms
Writing library : L3.99r
Encoding settings : -m s -V 4 -q 2 -lowpass 17 -b 128
Скриншоты
Скачать

Скачать торрент!

Как скачивать? · Что такое торрент? · Рейтинг и ограничения

Сайт не распространяет и не хранит электронные версии произведений, а лишь предоставляет доступ к создаваемому пользователями каталогу ссылок на торрент-файлы, которые содержат только списки хеш-сумм

[Профиль] [ЛС]
Показать сообщения:    
Ответить на тему

Текущее время: Сегодня 01:48

Часовой пояс: GMT + 4



Вы не можете начинать темы
Вы не можете отвечать на сообщения
Вы не можете редактировать свои сообщения
Вы не можете удалять свои сообщения
Вы не можете голосовать в опросах
Вы не можете прикреплять файлы к сообщениям
Вы не можете скачивать файлы