Преисподняя мертвых / Deadman Inferno / Z Island (Синагава Хироси / Hiroshi Shinagawa) [2015, Япония, ужасы, DVDRip] DVO

Ответить на тему
 
Автор Сообщение

user ®

Стаж: 13 лет

Сообщений: 15071

Пост Пост: #1 от 20-Дек-2015 01:09

[Цитировать]

Преисподняя мертвых / Deadman Inferno / Z Island
Страна: Япония
Жанр: ужасы
Год выпуска: 2015
Продолжительность: 01:48:28
Перевод: Любительский (двухголосый закадровый) РГ Лаваш
Cубтитры: нет
Оригинальная аудиодорожка: нет
Режиссер: Синагава Хироси / Hiroshi Shinagawa
В ролях: Се Айкава, Цуруми Синго, Сава Судзуки, Ямамото Мейко, Унихиро Кавасима, Ючи Кимура, Хидео Накано и др.
Описание: Спустя десять лет, глава клана якудза Хироя Мунакава, встречает своего верного соратника Такаши из тюрьмы. Парень принял удар вместо него, так что босс присматривал за его женой и дочерью, пока он отбывал срок. Но дочь Такаши, не желая встречаться с отцом, вместе со своей подругой сбежала на остров Зени. Однако, в это время на остров обрушилась зомби-эпидемия. И Такаши, вместе с главой клана и другими членами группировки отправляются на остров, чтобы оказать помощь. Но зомби это не единственное о чем стоит им волноваться. Банды непримиримых соперников, которым еще нужно поквитаться с кланом Мунакавы, тоже на острове.
Сэмпл: http://multi-up.com/1080014
Качество видео: DVDRip
Формат видео: AVI
Видео: XviD, 1718 Кбит/с, 720x304, 23.976 fps
Аудио: AC-3, 2 ch, 192 Кбит/с, 48.0 KHz
MediaInfo
General
Complete name : G:\Преисподняя_мертвых_2015.avi
Format : AVI
Format/Info : Audio Video Interleave
File size : 1.45 GiB
Duration : 1h 48mn
Overall bit rate : 1 919 Kbps
Writing application : VirtualDubMod 1.5.10.2 (build 2540/release)
Writing library : VirtualDubMod build 2540/release
Video
ID : 0
Format : MPEG-4 Visual
Format profile : Advanced Simple@L5
Format settings, BVOP : 1
Format settings, QPel : No
Format settings, GMC : No warppoints
Format settings, Matrix : Default (MPEG)
Codec ID : XVID
Codec ID/Hint : XviD
Duration : 1h 48mn
Bit rate : 1 718 Kbps
Width : 720 pixels
Height : 304 pixels
Display aspect ratio : 2.35:1
Frame rate : 23.976 fps
Color space : YUV
Chroma subsampling : 4:2:0
Bit depth : 8 bits
Scan type : Progressive
Compression mode : Lossy
Bits/(Pixel*Frame) : 0.327
Stream size : 1.30 GiB (90%)
Writing library : XviD 1.2.1 (UTC 2008-12-04)
Audio
ID : 1
Format : AC-3
Format/Info : Audio Coding 3
Mode extension : CM (complete main)
Format settings, Endianness : Big
Codec ID : 2000
Duration : 1h 48mn
Bit rate mode : Constant
Bit rate : 192 Kbps
Channel(s) : 2 channels
Channel positions : Front: L R
Sampling rate : 48.0 KHz
Compression mode : Lossy
Stream size : 149 MiB (10%)
Alignment : Split accross interleaves
Interleave, duration : 42 ms (1.00 video frame)
Interleave, preload duration : 500 ms
Скриншот c названием фильма Скриншоты
Скачать

Скачать торрент! Преисподняя мертвых / Deadman Inferno / Z Island (Синагава Хироси / Hiroshi Shinagawa) [2015, Япония, ужасы, DVDRip] DVO

Как скачивать? · Что такое торрент? · Рейтинг и ограничения

Сайт не распространяет и не хранит электронные версии произведений, а лишь предоставляет доступ к создаваемому пользователями каталогу ссылок на торрент-файлы, которые содержат только списки хеш-сумм

[Профиль] [ЛС]
Показать сообщения:    
Ответить на тему

Текущее время: Сегодня 11:35

Часовой пояс: GMT + 4



Вы не можете начинать темы
Вы не можете отвечать на сообщения
Вы не можете редактировать свои сообщения
Вы не можете удалять свои сообщения
Вы не можете голосовать в опросах
Вы не можете прикреплять файлы к сообщениям
Вы не можете скачивать файлы