Эверест / Everest (Бальтасар Кормакур / Baltasar Kormakur) [2015, США, Великобритания, Исландия, триллер, драма, приключения, биография, история, HDRip-AVC] Dub + Sub (Rus, Eng)

Ответить на тему
 
Автор Сообщение

user ®

Стаж: 7 лет 7 месяцев

Сообщений: 20008

Пост Пост: #1 от 20-Дек-2015 01:09

[Цитировать]

Эверест / Everest
Выпущено: США, Великобритания, Исландия
Жанр: триллер, драма, приключения, биография, история
Год выхода: 2015
Продолжительность: 02:01:10-Озвучивание: Профессиональный (дублированный) [Лицензия]
Оригинальная аудио дорожка: нет
Субтитры: Русские, Английские | Вшитые |-Режиссер: Бальтасар Кормакур / Baltasar Kormákur
В ролях: Джейсон Кларк, Джош Бролин, Джон Хоукс, Робин Райт, Эмили Уотсон, Кира Найтли, Сэм Уортингтон, Джейк Джилленхол, Томас М. Райт, Мартин Хендерсон-О фильме: Эверест — великая неприступная гора, покорить вершину которой мечтают многие профессиональные скалолазы. Одна из экспедиций на ее вершину закончилась настоящей трагедией, однако этот факт не останавливает отважных альпинистов.
Опытный инструктор Роб Холл, собрав группу из лучших альпинистов, собирается совершить восхождение на самую высокую вершину планеты. Все эти люди полны мужества и отваги и они не остановятся ни перед чем, пока не поднимутся на вершину Эвереста. Но даже если эта гора покорится им, смогут ли они вернуться обратно живыми и невредимыми?- С.э.м.п.л-Качество: HDRip-AVC
Формат: MKV (x264)
Видео: 960x400 (2.40:1), 23.976 fps, x264 ~1362 kbps avg, 0.15 bit/pixel
Аудио: 48 kHz, AC3 Dolby Digital, 3/2 (L,C,R,l,r) + LFE ch, ~384.00 kbps avg DUB-

MI
Общее
Уникальный идентификатор                 : 188487716070766633791957750413620173808 (0x8DCD69E52979E71E88807AEB20EC5BF0)
Полное имя                               : Everest.2015.Rus.HDRip-AVC.1.50GB.mgt.mkv
Формат                                   : Matroska
Версия формата                           : Version 4 / Version 2
Размер файла                             : 1,51 Гбайт
Продолжительность                        : 2 ч. 1 м.
Общий поток                              : 1781 Кбит/сек
Название фильма                          : Everest.2015.Rus.HDRip-AVC.1.50GB.mgt.mkv
Дата кодирования                         : UTC 2015-12-18 09:48:41
Программа кодирования                    : mkvmerge v6.5.0 ('Isn't she lovely') built on Oct 20 2013 12:50:05
Библиотека кодирования                   : libebml v1.3.0 + libmatroska v1.4.1
Видео
Идентификатор                            : 1
Формат                                   : AVC
Формат/Информация                        : Advanced Video Codec
Профиль формата                          : High@L3.1
Параметр CABAC формата                   : Да
Параметр ReFrames формата                : 8 кадров
Идентификатор кодека                     : V_MPEG4/ISO/AVC
Продолжительность                        : 2 ч. 1 м.
Битрейт                                  : 1362 Кбит/сек
Ширина                                   : 960 пикселей
Высота                                   : 400 пикселей
Соотношение сторон                       : 2,40:1
Режим частоты кадров                     : Постоянный
Частота кадров                           : 23,976 кадра/сек
Цветовое пространство                    : YUV
Субдискретизация насыщенности            : 4:2:0
Битовая глубина                          : 8 бит
Тип развёртки                            : Прогрессивная
Бит/(Пиксели*Кадры)                      : 0.148
Размер потока                            : 1,15 Гбайт (76%)
Заголовок                                : Everest (2015) - Release for HDCLUB
Библиотека кодирования                   : x264 core 148 r2638M 7599210
Настройки программы                      : cabac=1 / ref=8 / deblock=1:0:0 / analyse=0x3:0x133 / me=umh / subme=9 / psy=1 / psy_rd=1.00:0.00 / mixed_ref=1 / me_range=32 / chroma_me=1 / trellis=2 / 8x8dct=1 / cqm=0 / deadzone=21,11 / fast_pskip=1 / chroma_qp_offset=-2 / threads=3 / lookahead_threads=1 / sliced_threads=0 / nr=0 / decimate=1 / interlaced=0 / bluray_compat=0 / constrained_intra=0 / bframes=3 / b_pyramid=2 / b_adapt=2 / b_bias=0 / direct=3 / weightb=1 / open_gop=0 / weightp=2 / keyint=230 / keyint_min=23 / scenecut=40 / intra_refresh=0 / rc_lookahead=60 / rc=cbr / mbtree=1 / bitrate=1543 / ratetol=1.0 / qcomp=0.60 / qpmin=0 / qpmax=69 / qpstep=4 / vbv_maxrate=1543 / vbv_bufsize=1543 / nal_hrd=none / filler=0 / ip_ratio=1.40 / aq=1:1.00
Язык                                     : English
Default                                  : Да
Forced                                   : Нет
Аудио
Идентификатор                            : 2
Формат                                   : AC-3
Формат/Информация                        : Audio Coding 3
Расширение режима                        : CM (complete main)
Параметр Endianness формата              : Big
Идентификатор кодека                     : A_AC3
Продолжительность                        : 2 ч. 1 м.
Вид битрейта                             : Постоянный
Битрейт                                  : 384 Кбит/сек
Каналы                                   : 6 каналов
Расположение каналов                     : Front: L C R, Side: L R, LFE
Частота                                  : 48,0 КГц
Битовая глубина                          : 16 бит
Метод сжатия                             : С потерями
Размер потока                            : 333 Мбайт (22%)
Default                                  : Да
Forced                                   : Нет
Текст #1
Идентификатор                            : 3
Формат                                   : UTF-8
Идентификатор кодека                     : S_TEXT/UTF8
Идентификатор кодека/Информация          : UTF-8 Plain Text
Заголовок                                : Forced, iTunes
Язык                                     : Russian
Default                                  : Да
Forced                                   : Нет
Текст #2
Идентификатор                            : 4
Формат                                   : UTF-8
Идентификатор кодека                     : S_TEXT/UTF8
Идентификатор кодека/Информация          : UTF-8 Plain Text
Заголовок                                : iTunes
Язык                                     : Russian
Default                                  : Нет
Forced                                   : Нет
Текст #3
Идентификатор                            : 5
Формат                                   : UTF-8
Идентификатор кодека                     : S_TEXT/UTF8
Идентификатор кодека/Информация          : UTF-8 Plain Text
Заголовок                                : SDH, iTunes
Язык                                     : English
Default                                  : Нет
Forced                                   : Нет
Меню
00:00:00.000                             : :00:00:00.000
00:05:12.145                             : :00:05:12.145
00:09:36.075                             : :00:09:36.075
00:15:13.162                             : :00:15:13.162
00:20:58.424                             : :00:20:58.424
00:26:30.714                             : :00:26:30.714
00:33:15.118                             : :00:33:15.118
00:40:23.755                             : :00:40:23.755
00:47:23.382                             : :00:47:23.382
00:52:14.590                             : :00:52:14.590
00:57:49.174                             : :00:57:49.174
01:01:54.794                             : :01:01:54.794
01:07:22.080                             : :01:07:22.080
01:15:40.578                             : :01:15:40.578
01:21:03.901                             : :01:21:03.901
01:26:59.589                             : :01:26:59.589
01:32:39.137                             : :01:32:39.137
01:41:20.449                             : :01:41:20.449
01:46:47.651                             : :01:46:47.651
01:54:06.465                             : :01:54:06.465
Скриншоты
Скачать

Скачать торрент!

Как скачивать? · Что такое торрент? · Рейтинг и ограничения

Сайт не распространяет и не хранит электронные версии произведений, а лишь предоставляет доступ к создаваемому пользователями каталогу ссылок на торрент-файлы, которые содержат только списки хеш-сумм

[Профиль] [ЛС]
Показать сообщения:    
Ответить на тему

Текущее время: Сегодня 22:39

Часовой пояс: GMT + 4



Вы не можете начинать темы
Вы не можете отвечать на сообщения
Вы не можете редактировать свои сообщения
Вы не можете удалять свои сообщения
Вы не можете голосовать в опросах
Вы не можете прикреплять файлы к сообщениям
Вы не можете скачивать файлы