Раздолбайская учеба / Непутевая учеба / The bad education movie (Эллиот Хегарти / Elliot Hegarty) [2015, Великобритания, комедия, DVDRip] + Sub Rus + Original Eng

Ответить на тему
 
Автор Сообщение

user ®

Стаж: 7 лет 7 месяцев

Сообщений: 20008

Пост Пост: #1 от 20-Дек-2015 01:09

[Цитировать]

Раздолбайская учеба / Непутевая учеба / The bad education movie
Страна: Великобритания
Жанр: комедия
Год выпуска: 2015
Продолжительность: 01:30:42
Перевод: Субтитры (М.Васильев)
Cубтитры: русские
Оригинальная аудиодорожка: английский
Режиссер: Эллиот Хегарти / Elliot Hegarty
В ролях: Джек Уайтхол, Джоанна Скэнлан, Чарли Вернхам, Кае Александр, Никки Рунеклес, Итан Лоуренс, Джек Бинстед, Мэтью Хорн
Описание: Альфи Уикерс — самый ужасный учитель в истории человечества. Мало того, что он ничего не знает и ничему не учит, так еще и постоянно вляпывается в дурацкие истории и втягивает в них своих учеников. Они, впрочем, вполне достойны своего учителя. Редкостные оболтусы. Вот, отправились они на экскурсию в Корнуолл, но вместо осмотра достопримечательностей, веселая компания оказалась втянута в государственный переворот...
Доп. информация: Картина содержит сцены с грубым, а местами жестоким юмором.
Фильм основан на одноименном сериале, который выходил на канале ВВС с 2012 по 2014 год.
Оригинальный сериал:
[url=http://***/forum/viewtopic.php?t=4159488]Первый сезон (с титрами)[/url]
[url=http://***/forum/viewtopic.php?t=4234777]Первый сезон (с озвучкой Ozz)[/url]
[url=http://***/forum/viewtopic.php?t=4241329]Первый сезон (с озвучкой Байбако)[/url]
[url=http://***/forum/viewtopic.php?t=5026972]Второй сезон[/url]
[url=http://***/forum/viewtopic.php?t=5043459]Третий сезон[/url]
Сэмпл
IMDB
КИНОПОИСК
Качество видео: DVDRip
Формат видео: AVI
Видео: 1738 Kbps, 720x384 (1.85:1), 23 976 fps, XviD
Аудио: 448 Kbps, 48.0 KHz, 16 bits, 6 ch, AC 3
Формат субтитров: softsub (SRT)
MediaInfo
General
Complete name : C:\Users\Владелец\Desktop\badedu.avi
Format : AVI
Format/Info : Audio Video Interleave
File size : 1.39 GiB
Duration : 1h 30mn
Overall bit rate : 2 196 Kbps
Video
ID : 0
Format : MPEG-4 Visual
Format profile : Advanced Simple@L5
Format settings, BVOP : 2
Format settings, QPel : No
Format settings, GMC : No warppoints
Format settings, Matrix : Default (H.263)
Codec ID : XVID
Codec ID/Hint : XviD
Duration : 1h 30mn
Bit rate : 1 738 Kbps
Width : 720 pixels
Height : 384 pixels
Display aspect ratio : 1.85:1
Frame rate : 23.976 fps
Color space : YUV
Chroma subsampling : 4:2:0
Bit depth : 8 bits
Scan type : Progressive
Compression mode : Lossy
Bits/(Pixel*Frame) : 0.262
Stream size : 1.10 GiB (79%)
Writing library : XviD 66
Audio
ID : 1
Format : AC-3
Format/Info : Audio Coding 3
Mode extension : CM (complete main)
Format settings, Endianness : Big
Codec ID : 2000
Duration : 1h 30mn
Bit rate mode : Constant
Bit rate : 448 Kbps
Channel(s) : 6 channels
Channel positions : Front: L C R, Side: L R, LFE
Sampling rate : 48.0 KHz
Bit depth : 16 bits
Compression mode : Lossy
Stream size : 291 MiB (20%)
Alignment : Aligned on interleaves
Interleave, duration : 42 ms (1.00 video frame)
Interleave, preload duration : 512 ms
Скриншот c названием фильма Скриншоты Титры
1
00:00:45,295 --> 00:00:48,094
Кто хочет с сыром?
2
00:00:50,175 --> 00:00:51,722
С беконом?
3
00:00:52,094 --> 00:00:55,314
Джастин Бибер расписался
в гостевой книге.
4
00:00:58,058 --> 00:01:01,528
Класс! Если не заткнетесь,
никакой шоколадной фабрики!
5
00:01:01,687 --> 00:01:05,658
- Она, типа, как Бриджит Джонс?
- Нет, ее убили фашисты.
6
00:01:06,108 --> 00:01:07,781
Держи.
7
00:01:09,194 --> 00:01:12,949
Я подсыпал туда
грибочков.
8
00:01:13,115 --> 00:01:14,116
Отвали.
9
00:01:14,283 --> 00:01:16,581
Очередь задолбала.
10
00:01:17,286 --> 00:01:19,755
Ты хочешь обмануть
целую
11
00:01:19,913 --> 00:01:23,634
очередь евреев
в музее Анны Франк?
12
00:01:28,171 --> 00:01:29,718
Извините...
13
00:01:30,382 --> 00:01:32,055
Притворяйся.
14
00:01:36,054 --> 00:01:41,436
А теперь, пожалуйста, хоть
раз в жизни ведите себя прилично.
15
00:01:48,317 --> 00:01:51,821
Я нашел Анну.
16
00:01:59,745 --> 00:02:01,839
Это восковая фигура.
17
00:02:07,502 --> 00:02:08,469
Сэр.
18
00:02:11,506 --> 00:02:13,099
Сэр.
19
00:02:14,593 --> 00:02:16,220
Что с вами?
20
00:02:18,305 --> 00:02:22,355
Тихо, панда.
Анна говорит.
21
00:02:32,444 --> 00:02:34,321
Она хочет домой.
22
00:02:43,622 --> 00:02:46,250
Полиция!
23
00:04:21,219 --> 00:04:25,190
У нас получится.
24
00:04:37,000 --> 00:04:41,000
РАЗДОЛБАЙСКАЯ УЧЕБА
25
00:04:59,049 --> 00:05:03,054
Мы уже обсуждали это
на предыдущих собраниях.
Скачать

Скачать торрент!

Как скачивать? · Что такое торрент? · Рейтинг и ограничения

Сайт не распространяет и не хранит электронные версии произведений, а лишь предоставляет доступ к создаваемому пользователями каталогу ссылок на торрент-файлы, которые содержат только списки хеш-сумм

[Профиль] [ЛС]
Показать сообщения:    
Ответить на тему

Текущее время: Сегодня 11:43

Часовой пояс: GMT + 4



Вы не можете начинать темы
Вы не можете отвечать на сообщения
Вы не можете редактировать свои сообщения
Вы не можете удалять свои сообщения
Вы не можете голосовать в опросах
Вы не можете прикреплять файлы к сообщениям
Вы не можете скачивать файлы