Тоскующая по дому / Homesick (Якоб М. Ерва / Jakob M. Erwa) [2015, Германия, Австрия, Триллер, драма, DVDRip] DVO

Ответить на тему
 
Автор Сообщение

user ®

Стаж: 7 лет 7 месяцев

Сообщений: 20008

Пост Пост: #1 от 18-Дек-2015 18:12

[Цитировать]

Тоскующая по дому / Homesick /«Страсть и безумие - ваши соседи...» Страна: Германия, Австрия
Жанр: Триллер, драма
Год выпуска: 2015
Продолжительность: 01:37:44
Перевод: Любительский (двухголосый закадровый) datynet & Galina Vasyukova; перевод: Куценко
Cубтитры: нет
Режиссер: Якоб М. Ерва / Jakob M. Erwa
В ролях: Эстер Мария Пич, Матиас Лир, Татя Зайбт, Герман Бейер, Эрик Баувер, Карим Шериф, Луц Блохбергер, Хейке Ханолд
Описание: Амбициозная студентка виолончелистка Джессика переезжает в новую квартиру вместе со своим бойфрендом Лоренцом. Однако ее собственные четыре стены и ссоры с соседями не дают ей покоя. Нарастающее напряжение начинает пожирать Джессику и довольно скоро она не может отличить реальность от собственных фантазий...
Доп. информация: http://www.imdb.com/title/tt3103632/
http://www.kinopoisk.ru/film/801034
Сэмпл: http://sendfile.su/1184272
Качество видео: DVDRip
Формат видео: MKV
Видео: MPEG4 Video, (H264), 736x304 (368:153), 25fps
Аудио: 44.1 KHz, MP3, 2 ch, 192 Кбит/с
MediaInfo
General
Unique ID : 202154733122023603072974553380790503737 (0x981595DC3EE15112AA81077AAAAC8939)
Format : Matroska
Format version : Version 4 / Version 2
File size : 890 MiB
Duration : 1h 37mn
Overall bit rate : 1 273 Kbps
Encoded date : UTC 2015-12-16 11:40:43
Writing application : mkvmerge v8.6.1 ('Flying') 64bit
Writing library : libebml v1.3.3 + libmatroska v1.4.4
DURATION : 01:37:44.255000000
NUMBER_OF_FRAMES : 224491
NUMBER_OF_BYTES : 140742113
_STATISTICS_WRITING_APP : mkvmerge v8.6.1 ('Flying') 64bit
_STATISTICS_WRITING_DATE_UTC : 2015-12-16 11:40:43
_STATISTICS_TAGS : BPS DURATION NUMBER_OF_FRAMES NUMBER_OF_BYTES
Video
ID : 1
Format : AVC
Format/Info : Advanced Video Codec
Format profile : High@L3
Format settings, CABAC : No
Format settings, ReFrames : 1 frame
Codec ID : V_MPEG4/ISO/AVC
Duration : 1h 37mn
Bit rate : 1 080 Kbps
Width : 736 pixels
Height : 304 pixels
Display aspect ratio : 2.40:1
Frame rate mode : Constant
Frame rate : 25.000 fps
Color space : YUV
Chroma subsampling : 4:2:0
Bit depth : 8 bits
Scan type : Progressive
Bits/(Pixel*Frame) : 0.193
Stream size : 738 MiB (83%)
Writing library : x264 core 116 r2019 9cc407d
Encoding settings : cabac=0 / ref=1 / deblock=1:0:0 / analyse=0x3:0x113 / me=hex / subme=7 / psy=1 / psy_rd=1.00:0.00 / mixed_ref=0 / me_range=16 / chroma_me=1 / trellis=1 / 8x8dct=1 / cqm=0 / deadzone=21,11 / fast_pskip=1 / chroma_qp_offset=-2 / threads=1 / sliced_threads=0 / nr=0 / decimate=1 / interlaced=0 / bluray_compat=0 / constrained_intra=0 / bframes=0 / weightp=2 / keyint=250 / keyint_min=25 / scenecut=40 / intra_refresh=0 / rc_lookahead=40 / rc=abr / mbtree=1 / bitrate=1080 / ratetol=1.0 / qcomp=0.60 / qpmin=0 / qpmax=69 / qpstep=4 / ip_ratio=1.40 / aq=1:1.00
Default : Yes
Forced : No
Audio
ID : 2
Format : MPEG Audio
Format version : Version 1
Format profile : Layer 3
Codec ID : A_MPEG/L3
Codec ID/Hint : MP3
Duration : 1h 37mn
Bit rate mode : Constant
Bit rate : 192 Kbps
Channel(s) : 2 channels
Sampling rate : 44.1 KHz
Compression mode : Lossy
Stream size : 134 MiB (15%)
Default : Yes
Forced : No
Скриншот c названием фильма Скриншоты
Скачать

Скачать торрент!

Как скачивать? · Что такое торрент? · Рейтинг и ограничения

Сайт не распространяет и не хранит электронные версии произведений, а лишь предоставляет доступ к создаваемому пользователями каталогу ссылок на торрент-файлы, которые содержат только списки хеш-сумм

[Профиль] [ЛС]
Показать сообщения:    
Ответить на тему

Текущее время: Сегодня 08:13

Часовой пояс: GMT + 4



Вы не можете начинать темы
Вы не можете отвечать на сообщения
Вы не можете редактировать свои сообщения
Вы не можете удалять свои сообщения
Вы не можете голосовать в опросах
Вы не можете прикреплять файлы к сообщениям
Вы не можете скачивать файлы