Паразит: Часть вторая / Parasyte: Part 2 / Kiseiju Kanketsuhen (Ямадзаки Такаси / Yamazaki Takashi) [2015, Япония, ужасы, фантастика, DVDRip] Sub Rus + Original Jap

Ответить на тему
 
Автор Сообщение

user ®

Стаж: 13 лет

Сообщений: 15071

Пост Пост: #1 от 18-Дек-2015 12:00

[Цитировать]

Паразит: Часть вторая / Parasyte: Part 2
Страна: Япония
Жанр: ужасы, фантастика
Год выпуска: 2015
Продолжительность: 01:57:43
Перевод: Субтитры
Cубтитры: русские
Оригинальная аудиодорожка: японский
Режиссер: Ямадзаки Такаси / Yamazaki Takashi
В ролях:
Sometani Shota / Сометани Сёта - Izumi Shinichi / Идзуми Синъити
Hashimoto Ai / Хасимото Ай - Murano Satomi / Мурано Сатоми
Abe Sadao / Абэ Садао - Migi / Миги
Fukatsu Eri / Фукацу Эри - Tamiya Ryoko / Тамия Рёко
Omori Nao / Омори Нао - Kuramori / Курамори
Pierre Taki / Пьер Таки - Miki / Мики
Arai Hirofumi / Арай Хирофуми - Uragami / Урагами
Kitamura Kazuki / Китамура Кудзуки - Hirokawa Tsuyoshi / Хирокава Цуёси
Asano Tadanobu / Асано Таданобу - Goto / Гото
Kunimura Jun / Кунимура Дзюн - Detective Hirama / детектив Хирама
Описание:Я слышу голос...
"Убей... или будь убитым".
Пережив горечь утрат, Идзуми Синъити ставит себе единственную цель. Найти каждого паразита, а затем убивать одного за другим. Без жалости, без понимания, истребить их всех. Но сражаясь с чудовищами, так просто стать одним из них.
Из всех паразитов лишь Тамия Рёко, старая знакомая и бывший учитель, утверждает, что единственный шанс для паразитов и людей - жить вместе, сосуществовать. Для неё Синъити и Миги – эксперимент, надежда, будущее для обоих видов.
Но смогут ли остальные паразиты, да и сам Синъити принять это? ©Морриган
Перевод Funsub Kingdom Loli-Pop Stars!
Перевод - dilasse
Координатор и редактор - Морриган
Доп. информация:
IMDB
Кинопоиск
Сэмпл
Релиз группы:
Качество видео: DVDRip
Формат видео: AVI
Видео: XviD, 720 x 304, 23,976 кадр/сек, 1496 Кбит/сек
Аудио: AC-3, 48 KHz, 192 Кбит/сек, 2 канала
Формат субтитров: softsub (SSA/ASS)
MediaInfo
Формат : AVI
Формат/Информация : Audio Video Interleave
Профиль формата : OpenDML
Размер файла : 1,40 Гбайт
Продолжительность : 1 ч. 57 м.
Общий поток : 1701 Кбит/сек
Название фильма : Jubowo @ WiKi
Программа кодирования : Lavf55.19.104
Видео
Идентификатор : 0
Формат : xvid
Идентификатор кодека : xvid
Продолжительность : 1 ч. 57 м.
Битрейт : 1496 Кбит/сек
Ширина : 720 пикселей
Высота : 304 пикселя
Соотношение сторон : 2,35:1
Частота кадров : 23,976 кадра/сек
Бит/(Пиксели*Кадры) : 0.285
Размер потока : 1,23 Гбайт (88%)
Аудио
Идентификатор : 1
Формат : AC-3
Формат/Информация : Audio Coding 3
Расширение режима : CM (complete main)
Параметр Endianness формата : Big
Идентификатор кодека : 2000
Продолжительность : 1 ч. 57 м.
Вид битрейта : Постоянный
Битрейт : 192 Кбит/сек
Каналы : 2 канала
Расположение каналов : Front: L R
Частота : 48,0 КГц
Битовая глубина : 16 бит
Метод сжатия : С потерями
Размер потока : 162 Мбайт (11%)
Выравнивание : Соединение по промежуткам
Продолжительность промежутка : 32 мс. (0,77 видеокадр)
Скриншот c названием фильма Скриншоты Пример субтитров
Dialogue: 0,0:25:29.94,0:25:34.12,Default,,0,0,0,,Давно не виделись. Ты повзрослел...
Dialogue: 0,0:25:35.84,0:25:38.38,Default,,0,0,0,,Заходи. Я сделаю тебе кофе.
Dialogue: 0,0:25:39.34,0:25:40.86,Default,,0,0,0,,Не вмешивай в это людей.
Dialogue: 0,0:25:42.03,0:25:45.34,Default,,0,0,0,,Действительно ставишь опыт на этом человеческом дитёныше?
Dialogue: 0,0:25:46.63,0:25:50.20,Default,,0,0,0,,Эксперимент... Чтобы понять, каково быть матерью.
Dialogue: 0,0:25:51.70,0:25:53.58,Default,,0,0,0,,Ты не способна быть матерью.
Dialogue: 0,0:25:55.68,0:25:58.60,Default,,0,0,0,,Монстрам, пожирающим людей, это не дано.
Dialogue: 0,0:25:58.80,0:26:02.24,Default,,0,0,0,,Не надо совать свой нос в чужие дела.
Dialogue: 0,0:26:03.48,0:26:05.78,Default,,0,0,0,,Иначе, мои соратники прикончат тебя.
Dialogue: 0,0:26:06.65,0:26:08.20,Default,,0,0,0,,Ты о монстрах, что с тобой заодно?
Dialogue: 0,0:26:08.92,0:26:15.04,Default,,0,0,0,,На текущий момент, мы стали съедать меньше людей, по мере привыкания к человеческой пище.
Dialogue: 0,0:26:15.62,0:26:20.22,Default,,0,0,0,,Дай моим сородичам больше времени.
Dialogue: 0,0:26:21.16,0:26:24.00,Default,,0,0,0,,Будто я позволю твоим людоедам свободно слоняться по округе.
Dialogue: 0,0:26:33.36,0:26:39.88,Default,,0,0,0,,Поверь мне. И в обмен, я гарантирую твою безопасность.
Dialogue: 0,0:26:41.14,0:26:43.28,Default,,0,0,0,,Чудовищам нет веры.
Dialogue: 0,0:26:44.40,0:26:47.46,Default,,0,0,0,,Так поступают и люди, мы должны доверять друг другу.
Dialogue: 0,0:26:49.78,0:26:50.88,Default,,0,0,0,,Поверим ей.
Dialogue: 0,0:26:52.51,0:26:53.70,Default,,0,0,0,,Умолкни.
Dialogue: 0,0:27:20.22,0:27:21.66,Default,,0,0,0,,Этого достаточно?
Dialogue: 0,0:27:22.46,0:27:26.78,Default,,0,0,0,,Тамия Рёко - лидер всех паразитов.
Dialogue: 0,0:27:27.48,0:27:30.06,Default,,0,0,0,,Они подчиняются её приказам.
Dialogue: 0,0:27:31.18,0:27:36.36,Default,,0,0,0,,Не ввязывайся в это дальше. Забудь всё и уезжай подальше туда, где безопасно.
Dialogue: 0,0:27:42.74,0:27:45.12,Default,,0,0,0,,Свяжешься с Тамия Рёко, тебя точно убьют.
Dialogue: 0,0:27:47.96,0:27:49.92,Default,,0,0,0,,Говорю ради твоей же безопасности.
Dialogue: 0,0:27:51.04,0:27:52.92,Default,,0,0,0,,Не следи за нами больше.
Dialogue: 0,0:28:02.58,0:28:04.06,Default,,0,0,0,,Чёрт...
Dialogue: 0,0:28:05.02,0:28:06.30,Default,,0,0,0,,Сделала из меня дурака!...
Dialogue: 0,0:28:07.14,0:28:09.10,Default,,0,0,0,,Чёрт...!
Dialogue: 0,0:28:18.26,0:28:20.10,Default,,0,0,0,,Как будто я могу теперь остановиться.
Dialogue: 0,0:28:27.54,0:28:31.64,Default,,0,0,0,,Мы пытаемся остановить их распространение, но...
Dialogue: 0,0:28:32.84,0:28:38.68,Default,,0,0,0,,мы должны ещё и защищать культурную историю этого города.
Dialogue: 0,0:28:45.64,0:28:50.32,Default,,0,0,0,,Теперь я понимаю.\NСпасибо большое, что просветили меня.
Dialogue: 0,0:28:51.20,0:28:53.34,Default,,0,0,0,,Я получил необходимые ответы, мне пора.
Dialogue: 0,0:29:03.94,0:29:04.94,Default,,0,0,0,,Всего доброго.
Dialogue: 0,0:29:25.12,0:29:27.68,Default,,0,0,0,,Он спрятал это, пока вы говорили.
Dialogue: 0,0:29:32.46,0:29:33.72,Default,,0,0,0,,Убей его.
Dialogue: 0,0:29:35.44,0:29:37.00,Default,,0,0,0,,Уверен?
Dialogue: 0,0:29:37.32,0:29:39.78,Default,,0,0,0,,Необходимо уничтожить всех, представляющих угрозу.
Скачать

Скачать торрент! Паразит: Часть вторая / Parasyte: Part 2 / Kiseiju Kanketsuhen (Ямадзаки Такаси / Yamazaki Takashi) [2015, Япония, ужасы, фантастика, DVDRip] Sub Rus + Original Jap

Как скачивать? · Что такое торрент? · Рейтинг и ограничения

Сайт не распространяет и не хранит электронные версии произведений, а лишь предоставляет доступ к создаваемому пользователями каталогу ссылок на торрент-файлы, которые содержат только списки хеш-сумм

[Профиль] [ЛС]
Показать сообщения:    
Ответить на тему

Текущее время: Сегодня 16:35

Часовой пояс: GMT + 4



Вы не можете начинать темы
Вы не можете отвечать на сообщения
Вы не можете редактировать свои сообщения
Вы не можете удалять свои сообщения
Вы не можете голосовать в опросах
Вы не можете прикреплять файлы к сообщениям
Вы не можете скачивать файлы