Анклав / Enklava (Горан Радованович / Goran Radovanovic) [2015 г., Сербия, Германия, Драма, DVDRip] DVO + VO + Sub

Ответить на тему
 
Автор Сообщение

user ®

Стаж: 7 лет 7 месяцев

Сообщений: 20008

Пост Пост: #1 от 17-Дек-2015 11:15

[Цитировать]

Анклав / Enklava
Страна: Сербия, Германия
Жанр: Драма
Год выпуска: 2015
Продолжительность: 01:28:15
Перевод: Любительский (двухголосый закадровый) - Колобок
Перевод 2: Одноголосый закадровый - PashaUp
Перевод 3: Субтитры любительские - Professor
Cубтитры: русские
Оригинальная аудиодорожка: нет
Режиссер: Горан Радованович / Goran Radovanovic
В ролях: Филип Шубарич, Денис Мурич, Небойша Глоговац, Аница Добра, Миодраг Кривокапич, Ненад Ездич, Христина Попович, Мето Йовановски
Описание: Фильм - это попытка осмысления последствий трагических косовских событий. В деревне, окруженной албанскими поселениями, после войны не осталось детей (оставшиеся в Косово сербы живут в анклавах — небольших изолированных общинах). Дома полуразрушены, скот не присмотрен, жизнь разорена. Девятилетний Ненад играет с умирающим дедушкой в домино. В школу его возит ооновский БТР с надписью KFOR. И албанские мальчишки забрасывают машину камнями. Вирусом войны заражены не только взрослые, но и дети. И албанский сверстник Ненада Башким, сын убитого воина УЧК, не расстается с пистолетом. Радованович не обвиняет, не ищет виноватых. И даже не задается вопросами: как это все произошло. Пытается лишь в безнадежье нащупать способ жизни на земле, выжженной ненавистью. Его чаяния связаны с детьми. Да, тоже инфицированными войной. И все же открытыми будущему, сочувствию, способными испытывать чувство вины. Радованович старается быть объективным, не рисовать злодеев и жертв. Но при этом невозможно не сочувствовать тем, кто остался в анклавах и чувствовать трагедию сербского меньшинства в Косово. Ведь пока родственники Ненада хоронят его деда, многочисленная родня Башкима со стрельбой и криками празднует свадьбу, а потом разрушает сербское кладбище. Возможен ли мир на территории растерзанных селений? И есть ли там место для доброты и раскаяния за совершённые ошибки?
Доп. информация: Видео взято с этой раздачи - [url=http://***/forum/viewtopic.php?t=5134539]http://***/forum/viewtopic.php?t=5134539[/url], аудио взято из ДВД - [url=http://***/forum/viewtopic.php?t=5134539]http://***/forum/viewtopic.php?t=5134539[/url]
Сэмпл: https://www.sendspace.com/file/j1lax5
Качество видео: DVDRip
Формат видео: AVI
Видео: 1764 Кбит/сек, 720*400 (16:9), в 25,000 кадров/сек, XviD
Аудио: Русский, 192 Кбит/сек, 48,0 КГц, 16 бит, 2 канала, AC-3 - Колобок
Аудио 2: Русский, 224 Кбит/сек, 48,0 КГц, 16 бит, 2 канала, AC-3 - PashaUp
Формат субтитров: softsub (SRT)
MediaInfo
ОбщееПолное имя : N:\MONAR.RU\Художественные фильмы\Зарубежное кино\Анклав (2015) DVDRip\Анклав (2015).aviФормат : AVIФормат/Информация : Audio Video InterleaveРазмер файла : 1,35 ГбайтПродолжительность : 1 ч. 28 м.Общий поток : 2194 Кбит/сек
ВидеоИдентификатор : 0Формат : MPEG-4 VisualПрофиль формата : Advanced Simple@L5Параметр BVOP формата : 1Параметр QPel формата : НетПараметр GMC формата : Без точки переходаПараметр матрицы формата : ВыборочнаяИдентификатор кодека : XVIDИдентификатор кодека/Подсказка : XviDПродолжительность : 1 ч. 28 м.Битрейт : 1764 Кбит/секШирина : 720 пикселейВысота : 400 пикселейСоотношение сторон : 16:9Частота кадров : 25,000 кадров/секЦветовое пространство : YUVСубдискретизация насыщенности : 4:2:0Битовая глубина : 8 битТип развёртки : ПрогрессивнаяМетод сжатия : С потерямиБит/(Пиксели*Кадры) : 0.245Размер потока : 1,09 Гбайт (80%)Библиотека кодирования : XviD 73
Аудио #1Идентификатор : 1Формат : AC-3Формат/Информация : Audio Coding 3Расширение режима : CM (complete main)Параметр Endianness формата : BigИдентификатор кодека : 2000Продолжительность : 1 ч. 28 м.Продолжительность оригинала : 1 ч. 28 м.Вид битрейта : ПостоянныйБитрейт : 192 Кбит/секКаналы : 2 каналаРасположение каналов : Front: L RЧастота : 48,0 КГцЧастота кадров : 31,250 кадров/сек (1536 spf)Битовая глубина : 16 битМетод сжатия : С потерямиРазмер потока : 121 Мбайт (9%)Выравнивание : Соединение по промежуткамПродолжительность промежутка : 40 мс. (1,00 видеокадр)
Аудио #2Идентификатор : 2Формат : AC-3Формат/Информация : Audio Coding 3Расширение режима : CM (complete main)Параметр Endianness формата : BigИдентификатор кодека : 2000Продолжительность : 1 ч. 28 м.Продолжительность оригинала : 1 ч. 28 м.Вид битрейта : ПостоянныйБитрейт : 224 Кбит/секКаналы : 2 каналаРасположение каналов : Front: L RЧастота : 48,0 КГцЧастота кадров : 31,250 кадров/сек (1536 spf)Битовая глубина : 16 битМетод сжатия : С потерямиРазмер потока : 141 Мбайт (10%)Выравнивание : Соединение по промежуткамПродолжительность промежутка : 40 мс. (1,00 видеокадр)
Скриншот c названием фильма Скриншоты
Скачать

Скачать торрент!

Как скачивать? · Что такое торрент? · Рейтинг и ограничения

Сайт не распространяет и не хранит электронные версии произведений, а лишь предоставляет доступ к создаваемому пользователями каталогу ссылок на торрент-файлы, которые содержат только списки хеш-сумм

[Профиль] [ЛС]
Показать сообщения:    
Ответить на тему

Текущее время: Сегодня 02:16

Часовой пояс: GMT + 4



Вы не можете начинать темы
Вы не можете отвечать на сообщения
Вы не можете редактировать свои сообщения
Вы не можете удалять свои сообщения
Вы не можете голосовать в опросах
Вы не можете прикреплять файлы к сообщениям
Вы не можете скачивать файлы