Провал во времени / Миссия самураев / День апокалипсиса / Sengoku jieitai / G.I. Samurai / Day of the Apocalypse (Мицумаса Саито / Mitsumasa Saito) [1979, Япония, военный, DVDRip-AVC] MVO (Инис/ТВ-3) + AVO (Кузнецов) + Sub Rus + Original Jap

Ответить на тему
 
Автор Сообщение

user ®

Стаж: 13 лет

Сообщений: 15071

Пост Пост: #1 от 16-Дек-2015 19:48

[Цитировать]

Провал во времени / Провал во времени: Воины Апокалипсиса / Провал во времени: Средневековая армия самообороны / Миссия самураев / День апокалипсиса / Sengoku jieitai / G.I. Samurai / Time Slip / Day of the Apocalypse
Страна: Япония
Жанр: фантастика, военный, боевик, приключение
Год выпуска: 1979
Продолжительность: 02:21:36
-
Перевод 1:Профессиональный (многоголосый, закадровый) Инис/ТВ-3
Перевод 2: Авторский (одноголосый закадровый) Сергей Кузнецов
Cубтитры: русские
Оригинальная аудиодорожка: японский
-
Режиссер: Мицумаса Саито / Mitsumasa Saito
В ролях: Сонни Чиба, Дзюн Это, Тоситака Ито, Харуки Кадокава, Хироси Камаяцу, Кэндзо Каварадзаки, Асао Койкэ, Кэнтаро Кудо, Ко Курайси, Масао Кусакари, Ёити Миура, Нобору Накая
-
Описание: Действие фильма начинается в конце 70-х годов ХХ века в Японии. Во время учений японской армии, группа военных, ночью, во-время передислокации попадает в аномальную зону, после чего попадает во времена самураев, когда япония была в состоянии междуусобных войн, шел передел территорий. Командир одного из подразделений японской армии, подружившись с одним из правителей, решили с помощью современного оружия, которое естественно тоже попало в те времена, завоевать всю Японию.
-
Доп. информация:
-
Сэмпл: http://sendfile.su/1183783
-
Качество видео: DVDRip-AVC (DVD9/oleg-k)
Формат видео: MKV
Видео: 714x466 (1.85:1) @ 848x466, 23.976 fps, AVC, ~2 170 Kbps, 0.272 bits/pixel
Аудио 1: 48 kHz, AC3 Dolby Digital, 3/2 (L,C,R,l,r) + LFE ch, ~384 kbps RUS
Аудио 2: 48 kHz, AC3 Dolby Digital, 3/2 (L,C,R,l,r) + LFE ch, ~384 kbps JAP
Аудио 3: 48 kHz, AC3 Dolby Digital, 2/0 (L,R) ch, ~192 kbps RUS Кузнецов Отдельно
Формат субтитров: softsub (SRT)
MediaInfo
x264 [info]: frame I:1241 Avg QP:18.53 size: 55838
x264 [info]: frame P:44269 Avg QP:21.84 size: 22005
x264 [info]: frame B:158205 Avg QP:24.28 size: 7969-General
Unique ID : 238331432850402055938612813418939686161 (0xB34CF6DDC69C5AF0B4DA93D010461D11)
Complete name : C:\Users\ALEX\Downloads\Фильмы\Sengoku jieitai.G.I. Samurai.1979.RUS.JAP.DVDRip-AVC.x264.AC3.Sub\Sengoku jieitai.G.I. Samurai.1979.RUS.JAP.DVDRip-AVC.x264.AC3.Sub.mkv
Format : Matroska
Format version : Version 4 / Version 2
File size : 2.91 GiB
Duration : 2h 21mn
Overall bit rate : 2 940 Kbps
Encoded date : UTC 2015-12-15 20:39:34
Writing application : mkvmerge v8.5.2 ('Crosses') 64bit
Writing library : libebml v1.3.3 + libmatroska v1.4.4
Video
ID : 1
Format : AVC
Format/Info : Advanced Video Codec
Format profile : High@L4.1
Format settings, CABAC : Yes
Format settings, ReFrames : 10 frames
Codec ID : V_MPEG4/ISO/AVC
Duration : 2h 21mn
Bit rate : 2 170 Kbps
Width : 714 pixels
Height : 466 pixels
Display aspect ratio : 1.85:1
Frame rate mode : Constant
Frame rate : 23.976 fps
Color space : YUV
Chroma subsampling : 4:2:0
Bit depth : 8 bits
Scan type : Progressive
Bits/(Pixel*Frame) : 0.272
Stream size : 2.15 GiB (74%)
Title : Sengoku jieitai. G.I. Samurai
Writing library : x264 core 148 r2638 7599210
Encoding settings : cabac=1 / ref=10 / deblock=1:1:1 / analyse=0x3:0x113 / me=umh / subme=11 / psy=1 / psy_rd=1.00:0.10 / mixed_ref=1 / me_range=32 / chroma_me=1 / trellis=2 / 8x8dct=1 / cqm=0 / deadzone=21,11 / fast_pskip=0 / chroma_qp_offset=-3 / threads=6 / lookahead_threads=1 / sliced_threads=0 / nr=0 / decimate=1 / interlaced=0 / bluray_compat=0 / constrained_intra=0 / bframes=12 / b_pyramid=2 / b_adapt=2 / b_bias=0 / direct=3 / weightb=1 / open_gop=0 / weightp=2 / keyint=240 / keyint_min=23 / scenecut=40 / intra_refresh=0 / rc_lookahead=60 / rc=2pass / mbtree=1 / bitrate=2170 / ratetol=1.0 / qcomp=0.60 / qpmin=0 / qpmax=69 / qpstep=4 / cplxblur=20.0 / qblur=0.5 / ip_ratio=1.40 / aq=1:1.00
Default : Yes
Forced : No
Audio #1
ID : 2
Format : AC-3
Format/Info : Audio Coding 3
Mode extension : CM (complete main)
Format settings, Endianness : Big
Codec ID : A_AC3
Duration : 2h 21mn
Bit rate mode : Constant
Bit rate : 384 Kbps
Channel(s) : 6 channels
Channel positions : Front: L C R, Side: L R, LFE
Sampling rate : 48.0 KHz
Compression mode : Lossy
Stream size : 389 MiB (13%)
Title : MVO (Инис/ТВ-3)
Language : Russian
Default : Yes
Forced : No
Audio #2
ID : 3
Format : AC-3
Format/Info : Audio Coding 3
Mode extension : CM (complete main)
Format settings, Endianness : Big
Codec ID : A_AC3
Duration : 2h 21mn
Bit rate mode : Constant
Bit rate : 384 Kbps
Channel(s) : 6 channels
Channel positions : Front: L C R, Side: L R, LFE
Sampling rate : 48.0 KHz
Compression mode : Lossy
Stream size : 389 MiB (13%)
Title : Original
Language : Japanese
Default : No
Forced : No
Text
ID : 4
Format : UTF-8
Codec ID : S_TEXT/UTF8
Codec ID/Info : UTF-8 Plain Text
Duration : 2h 9mn
Stream size : 34.1 KiB (0%)
Title : Full
Language : Russian
Default : No
Forced : No
Скриншоты
Скачать

Скачать торрент! Провал во времени / Миссия самураев / День апокалипсиса / Sengoku jieitai / G.I. Samurai / Day of the Apocalypse (Мицумаса Саито / Mitsumasa Saito) [1979, Япония, военный, DVDRip-AVC] MVO (Инис/ТВ-3) + AVO (Кузнецов) + Sub Rus + Original Jap

Как скачивать? · Что такое торрент? · Рейтинг и ограничения

Сайт не распространяет и не хранит электронные версии произведений, а лишь предоставляет доступ к создаваемому пользователями каталогу ссылок на торрент-файлы, которые содержат только списки хеш-сумм

[Профиль] [ЛС]
Показать сообщения:    
Ответить на тему

Текущее время: Сегодня 18:09

Часовой пояс: GMT + 4



Вы не можете начинать темы
Вы не можете отвечать на сообщения
Вы не можете редактировать свои сообщения
Вы не можете удалять свои сообщения
Вы не можете голосовать в опросах
Вы не можете прикреплять файлы к сообщениям
Вы не можете скачивать файлы