Мультипликационный крокодил №1 (В. Пекарь, В. Попов, Л. Позднеев) [1960, СССР, Союзмультфильм, Мультфильм, DVB]

Ответить на тему
 
Автор Сообщение

user ®

Стаж: 7 лет 7 месяцев

Сообщений: 20008

Пост Пост: #1 от 16-Дек-2015 16:42

[Цитировать]

Мультипликационный крокодил №1
Страна: СССР, Союзмультфильм
Жанр: Мультфильм
Продолжительность: 00:09:44
Год выпуска: 1960
Перевод: Не требуется
Русские субтитры: нет
Режиссёр: В. Пекарь, В. Попов, Л. Позднеев
Роли озвучивали: Иван Любезнов, Лев Потемкин, Е. Семенкина, М. Докторова, А. Бухарцева
Описание: Сатирический мультжурнал для взрослых.
Я на : [url=http://***/forum/tracker.php?rid=13773739] [/url]
Качество: DVB
Формат: MPEG-TS
Видео: MPEG Video, 3076 kbps, 704 x 576 (1.333), 25 kbps
Аудио: MPEG Audio, 160 kbps, 2 ch, 48 kHz
Субтитры: Отсутствуют
Подробные технические данные
ОбщееИдентификатор : 1 (0x1)Полное имя : D:\00-МУК-01\МУК-01.tsФормат : MPEG-TSРазмер файла : 237 МбайтПродолжительность : 9 м. 44 с.Режим общего битрейта : ПеременныйОбщий поток : 3406 Кбит/сек
ВидеоИдентификатор : 1310 (0x51E)Идентификатор меню : 310 (0x136)Формат : MPEG VideoВерсия формата : Version 2Профиль формата : Main@MainПараметр BVOP формата : ДаПараметр матрицы формата : ВыборочнаяПараметр GOP формата : VariableСтруктура изображения : FrameИдентификатор кодека : 2Продолжительность : 9 м. 44 с.Вид битрейта : ПеременныйБитрейт : 3076 Кбит/секМаксимальный битрейт : 15,0 Мбит/секШирина : 704 пикселяВысота : 576 пикселейСоотношение сторон : 4:3Частота кадров : 25,000 кадров/секСтандарт вещания : PALЦветовое пространство : YUVСубдискретизация насыщенности : 4:2:0Битовая глубина : 8 битТип развёртки : ЧересстрочнаяПорядок развёртки : Верхнее поле первоеМетод сжатия : С потерямиБит/(Пиксели*Кадры) : 0.303Временной код первого кадра : 00:00:00:00Оригинал временного кода : Group of pictures headerGOP, открыто/закрыто : ОткрытоGOP, открыто/закрыто на первом кадре : ЗакрытоРазмер потока : 214 Мбайт (90%)
АудиоИдентификатор : 2310 (0x906)Идентификатор меню : 310 (0x136)Формат : MPEG AudioВерсия формата : Version 1Профиль формата : Layer 2Идентификатор кодека : 3Продолжительность : 9 м. 44 с.Вид битрейта : ПостоянныйБитрейт : 160 Кбит/секКаналы : 2 каналаЧастота : 48,0 КГцМетод сжатия : С потерямиЗадержка видео : 3 мс.Размер потока : 11,1 Мбайт (5%)Язык : Russian
Скриншоты
Скачать

Скачать торрент!

Как скачивать? · Что такое торрент? · Рейтинг и ограничения

Сайт не распространяет и не хранит электронные версии произведений, а лишь предоставляет доступ к создаваемому пользователями каталогу ссылок на торрент-файлы, которые содержат только списки хеш-сумм

[Профиль] [ЛС]
Показать сообщения:    
Ответить на тему

Текущее время: Сегодня 18:20

Часовой пояс: GMT + 4



Вы не можете начинать темы
Вы не можете отвечать на сообщения
Вы не можете редактировать свои сообщения
Вы не можете удалять свои сообщения
Вы не можете голосовать в опросах
Вы не можете прикреплять файлы к сообщениям
Вы не можете скачивать файлы