От снега до снега (Юрий Петров) [1968, мелодрама, DVB]

Ответить на тему
 
Автор Сообщение

user ®

Стаж: 7 лет 7 месяцев

Сообщений: 20008

Пост Пост: #1 от 16-Дек-2015 16:42

[Цитировать]

От снега до снега
Жанр: мелодрама
Год выпуска: 1968
Продолжительность: 01:28:11
Режиссёр: Юрий Петров
В ролях: Надежда Романина,Александр Збруев,Галина Рыжкова,Владимир Русанов,Нина Кондакова
Описание: После института Анна приезжает на далекую северную метеостанцию, где знакомится со своей напарницей и местным лесорубом, которые любят друг друга. Однажды утром Анна проснется и увидит, что ее друзья уехали, оставив ее зимовать в одиночестве.
Качество видео: DVB
Формат видео: MPEG-PS
Видео: MPEG2, 720x576, 4:3, 25.00fps, 2344 Kbps
Аудио: MP2 2.0, 48 kHz, 192 kbps
Сравнение
[url=http://***/forum/viewtopic.php?t=1067877]http://***/forum/viewtopic.php?t=1067877[/url]
http://screenshotcomparison.com/comparison/154601
MediaInfo
General
Complete name : От снега до снега (1968) DVB.mpg
Format : MPEG-PS
File size : 1.59 GiB
Duration : 1h 28mn
Overall bit rate mode : Variable
Overall bit rate : 2 588 Kbps
Video
ID : 224 (0xE0)
Format : MPEG Video
Format version : Version 2
Format profile : Main@Main
Format settings, BVOP : Yes
Format settings, Matrix : Custom
Format settings, GOP : Variable
Format settings, picture structure : Frame
Duration : 1h 28mn
Bit rate mode : Variable
Bit rate : 2 344 Kbps
Maximum bit rate : 15.0 Mbps
Width : 720 pixels
Height : 576 pixels
Display aspect ratio : 4:3
Frame rate : 25.000 fps
Standard : PAL
Color space : YUV
Chroma subsampling : 4:2:0
Bit depth : 8 bits
Scan type : Interlaced
Scan order : Top Field First
Compression mode : Lossy
Bits/(Pixel*Frame) : 0.226
Time code of first frame : 00:00:00:00
Time code source : Group of pictures header
GOP, Open/Closed : Open
Stream size : 1.44 GiB (91%)
GOP, Open/Closed of first frame : Closed
Audio
ID : 192 (0xC0)
Format : MPEG Audio
Format version : Version 1
Format profile : Layer 2
Duration : 1h 28mn
Bit rate mode : Constant
Bit rate : 192 Kbps
Channel(s) : 2 channels
Sampling rate : 48.0 KHz
Compression mode : Lossy
Delay relative to video : 8ms
Stream size : 121 MiB (7%)
Скриншоты
Скачать

Скачать торрент!

Как скачивать? · Что такое торрент? · Рейтинг и ограничения

Сайт не распространяет и не хранит электронные версии произведений, а лишь предоставляет доступ к создаваемому пользователями каталогу ссылок на торрент-файлы, которые содержат только списки хеш-сумм

[Профиль] [ЛС]
Показать сообщения:    
Ответить на тему

Текущее время: Сегодня 08:38

Часовой пояс: GMT + 4



Вы не можете начинать темы
Вы не можете отвечать на сообщения
Вы не можете редактировать свои сообщения
Вы не можете удалять свои сообщения
Вы не можете голосовать в опросах
Вы не можете прикреплять файлы к сообщениям
Вы не можете скачивать файлы