Крутой Сингх / Singh Is Bling (Прабху Дева / Prabhu Deva) [2015, Индия, Комедия, DVDRip] DVO (Khushi Khiladi) + Sub Rus

Ответить на тему
 
Автор Сообщение

user ®

Стаж: 12 лет

Сообщений: 15092

Пост Пост: #1 от 16-Дек-2015 13:36

[Цитировать]

Крутой Сингх / Singh Is Bling
Страна: Индия
Жанр: Комедия
Год выпуска: 2015
Продолжительность: 02:13:34
Перевод: Любительский (двухголосый закадровый) Khushi Khiladi
Cубтитры: русские (на весь фильм + песни)
Оригинальная аудиодорожка: Хинди
Режиссер: Прабху Дева / Prabhu Deva
В ролях: Акшай Кумар, Эми Джексон, Лара Датта, Кей Кей Менон, Кунал Капур, Санни Леоне, Прабху Дева.
Описание: Рафтар Сингх - простой деревенский парень с доброй душой, который не доводит дел до конца. Отец отправляет его в Гоа, чтобы научить жизни. Именно там судьба дарит ему встречу с красавицей Сарой. Но вот беда: она не говорит на хинди! К трудностям перевода добавляется высокомерный нрав красотки, а тут еще за ней начали охоту сразу две банды злоумышленников. Сколько танцев придется сплясать влюбленному герою Акшая, прежде чем она скажет ему «да»?
Сэмпл: http://multi-up.com/1079555
Качество видео: DVDRip
Формат видео: MKV
Видео кодек: H.264
Размер кадра: 720 х 304 pixel
Частота кадра: 23.976 fps
Видео битрейт: 1 169 kbps
Аудио кодек (русский): МР3
Частота дискретизации: 44.1 kHz
Каналы: 2 ch
Аудио битрейт: 176 kbps
Аудио кодек (хинди): AC3
Частота дискретизации: 48 kHz
Каналы: 5.1 (6 ch)
Аудио битрейт: 448 kbps
Формат субтитров: softsub (SRT)
Перевод: Селена
Озвучка: Селена и Виктор Маренин

MediaInfo
Complete name : Крутой Сингх.Singh Is Bling. Русская озвучка от КК.mkv
Format : Matroska
Format version : Version 2
File size : 1.67 GiB
Duration : 2h 13mn
Overall bit rate mode : Variable
Overall bit rate : 1 794 Kbps
Encoded date : UTC 2015-12-13 16:50:55
Writing application : mkvmerge v4.4.0 ('Die Wiederkehr') сборка от Oct 31 2010 21:52:48
Writing library : libebml v1.0.0 + libmatroska v1.0.0
_STATISTICS_WRITING_APP : mkvmerge v7.7.0 ('Six Voices') 32bit built on Feb 28 2015 23:23:00
_STATISTICS_WRITING_DATE_UTC : 2015-12-03 19:47:17
_STATISTICS_TAGS : BPS DURATION NUMBER_OF_FRAMES NUMBER_OF_BYTES
DURATION : 02:13:33.952000000
NUMBER_OF_FRAMES : 250436
NUMBER_OF_BYTES : 448781312
Video #1
ID : 1
Format : AVC
Format/Info : Advanced Video Codec
Format profile : High@L3.0
Format settings, CABAC : Yes
Format settings, ReFrames : 4 frames
Muxing mode : Header stripping
Codec ID : V_MPEG4/ISO/AVC
Duration : 2h 13mn
Bit rate : 1 169 Kbps
Width : 720 pixels
Height : 304 pixels
Display aspect ratio : 2.35:1
Frame rate : 23.976 fps
Color space : YUV
Chroma subsampling : 4:2:0
Bit depth : 8 bits
Scan type : Progressive
Bits/(Pixel*Frame) : 0.223
Stream size : 1.06 GiB (63%)
Writing library : x264 core 146 r2538 121396c
Audio #2
ID : 2
Format : MPEG Audio
Format version : Version 1
Format profile : Layer 3
Mode : Joint stereo
Mode extension : MS Stereo
Muxing mode : Header stripping
Codec ID : A_MPEG/L3
Codec ID/Hint : MP3
Duration : 2h 13mn
Bit rate mode : Variable
Bit rate : 176 Kbps
Nominal bit rate : 192 Kbps
Channel(s) : 2 channels
Sampling rate : 44.1 KHz
Compression mode : Lossy
Stream size : 168 MiB (10%)
Title : Русская озвучка от КК
Writing library : LAME3.99r
Encoding settings : -m j -V 4 -q 0 -lowpass 18.6 --abr 192
Language : Russian
Audio #3
ID : 3
Format : AC-3
Format/Info : Audio Coding 3
Mode extension : CM (complete main)
Muxing mode : Header stripping
Codec ID : A_AC3
Duration : 2h 13mn
Bit rate mode : Constant
Bit rate : 448 Kbps
Channel(s) : 6 channels
Channel positions : Front: L C R, Side: L R, LFE
Sampling rate : 48.0 KHz
Bit depth : 16 bits
Compression mode : Lossy
Stream size : 428 MiB (25%)
Language : Hindi
Text #4
ID : 4
Format : UTF-8
Codec ID : S_TEXT/UTF8
Codec ID/Info : UTF-8 Plain Text
Title : Русские субтитры на песни
Language : Russian
Text #5
ID : 5
Format : UTF-8
Codec ID : S_TEXT/UTF8
Codec ID/Info : UTF-8 Plain Text
Title : Русские субтитры на весь фильм
Language : Russian
Скриншот c названием фильма Скриншоты
Скачать

Скачать торрент! Крутой Сингх / Singh Is Bling (Прабху Дева / Prabhu Deva) [2015, Индия, Комедия, DVDRip] DVO (Khushi Khiladi) + Sub Rus

Как скачивать? · Что такое торрент? · Рейтинг и ограничения

Сайт не распространяет и не хранит электронные версии произведений, а лишь предоставляет доступ к создаваемому пользователями каталогу ссылок на торрент-файлы, которые содержат только списки хеш-сумм

[Профиль] [ЛС]
Показать сообщения:    
Ответить на тему

Текущее время: Сегодня 14:57

Часовой пояс: GMT + 4



Вы не можете начинать темы
Вы не можете отвечать на сообщения
Вы не можете редактировать свои сообщения
Вы не можете удалять свои сообщения
Вы не можете голосовать в опросах
Вы не можете прикреплять файлы к сообщениям
Вы не можете скачивать файлы