Чёрный лебедь / Black Swan (Даррен Аронофски / Darren Aronofsky) [2010, США, триллер, драма, DVDScr] DVO + Original + Rus Subs

Ответить на тему
 
Автор Сообщение

user ®

Стаж: 7 лет 7 месяцев

Сообщений: 20008

Пост Пост: #1 от 25-Дек-2010 21:49

[Цитировать]

Чёрный лебедь / Black Swan Страна: США
Жанр: триллер, драма
Год выпуска: 2010
Продолжительность: 01:47:26
Перевод: Любительский (двухголосый, закадровый) «Сладкая парочка»
Оригинальная аудиодорожка: английская (отдельным файлом)
Cубтитры:есть
Режиссер: Даррен Аронофски / Darren Aronofsky
В ролях: Натали Портман, Мила Кунис, Венсан Кассель, Барбара Херши, Вайнона Райдер, Бенжамин Милльпьед, Ксения Соло, Кристина Анапау, Джанет Монтгомери, Себастиан Стэн
Описание: Сюжет картины строится вокруг примы балетного театра, у которой неожиданно появляется опасная конкурентка, способная отобрать у главной героини все партии. Соперничество усиливается по мере приближения ответственного выступления, которое должно решить все.

IMDb: 8.9/10 (7245 votes)
премьера (мир): 1 сентября 2010
премьера (РФ): 17 февраля 2011, «Фокс»
Скачать сэмпл
Качество видео: DVDScr [ViSiON]
Формат видео: AVI
Видео: 720x304 (2.37:1), 29.970 fps, XviD MPEG-4 ~1798 kbps avg, 0.27 bit/pixel
Аудио 1: 48 kHz, AC3 Dolby Digital, 2/0 (L,R) ch, ~192 kbps (Русский)
Аудио 2: 48 kHz, AC3 Dolby Digital, 2/0 (L,R) ch, ~192 kbps (Оригинал) Отдельным файлом *.AC3

Скриншоты

Подключение внешней звуковой дорожки

Иллюстрация на примере Media Player Classic - Home Cinema

MediaInfo

Video
ID : 0
Format : MPEG-4 Visual
Format profile : Advanced Simple@L5
Format settings, BVOP : Yes
Format settings, QPel : No
Format settings, GMC : No warppoints
Format settings, Matrix : Custom
Muxing mode : Packed bitstream
Codec ID : XVID
Codec ID/Hint : XviD
Duration : 1h 47mn
Bit rate : 1 798 Kbps
Width : 720 pixels
Height : 304 pixels
Display aspect ratio : 2.35:1
Frame rate : 29.970 fps
Color space : YUV
Chroma subsampling : 4:2:0
Bit depth : 8 bits
Scan type : Progressive
Bits/(Pixel*Frame) : 0.274
Stream size : 1.35 GiB (90%)
Writing library : XviD 1.2.1 (UTC 2008-12-04)
Audio
ID : 1
Format : AC-3
Format/Info : Audio Coding 3
Mode extension : CM (complete main)
Codec ID : 2000
Duration : 1h 47mn
Bit rate mode : Constant
Bit rate : 192 Kbps
Channel(s) : 2 channels
Channel positions : Front: L R
Sampling rate : 48.0 KHz
Stream size : 148 MiB (10%)
Alignment : Split accross interleaves
Interleave, duration : 33 ms (1.00 video frame)
Interleave, preload duration : 500 ms
Скачать

Скачать торрент!

Как скачивать? · Что такое торрент? · Рейтинг и ограничения

Сайт не распространяет и не хранит электронные версии произведений, а лишь предоставляет доступ к создаваемому пользователями каталогу ссылок на торрент-файлы, которые содержат только списки хеш-сумм

[Профиль] [ЛС]

mamamiya

Стаж: 6 лет

Сообщений: 3

Пост Пост: #2 от 08-Янв-2011 00:23 (спустя 13 дней)

[Цитировать]

хорошая вещь. Давно не видел ничего качественного в стиле экспрессионизма. Вот только почему это триллер так и не понял:)
[Профиль] [ЛС]
Показать сообщения:    
Ответить на тему

Текущее время: Сегодня 15:34

Часовой пояс: GMT + 4



Вы не можете начинать темы
Вы не можете отвечать на сообщения
Вы не можете редактировать свои сообщения
Вы не можете удалять свои сообщения
Вы не можете голосовать в опросах
Вы не можете прикреплять файлы к сообщениям
Вы не можете скачивать файлы