Битва волшебников: Алекс против Алекс / The Wizards Return: Alex vs. Alex (Виктор Гонсалес / Victor Gonzalez) [2013, США, фэнтези, комедия, приключения, семейный, WEB-DL 1080p] Dub (Невафильм) + Sub Rus, Eng + Original Eng

Ответить на тему
 
Автор Сообщение

user ®

Стаж: 7 лет 7 месяцев

Сообщений: 20008

Пост Пост: #1 от 16-Дек-2015 01:15

[Цитировать]

Битва волшебников: Алекс против Алекс / The Wizards Return: Alex vs. Alex
Страна: США
Студия: It's a Laugh Productions | Disney Channel
Жанр: фэнтези, комедия, приключения, семейный
Год выпуска: 2013
Продолжительность: 00:58:39
Перевод: Профессиональный (дублированный) Невафильм
Cубтитры: русские, английские
Оригинальная аудиодорожка: английский
Режиссер: Виктор Гонсалес / Victor Gonzalez
В ролях: Селена Гомес, Джейк Т. Остин, Дженнифер Стоун, Грегг Салкин, Бо Мирчофф, Мария Кэнелс-Баррера, Дэвид ДеЛуис, Наталия Ногулич, Антонелла Лентини, Джек Доннер...
Описание: Волшебная семейка Руссо — снова в центре внимания. В одно прекрасное лето Тереза, Джерри и Макс с друзьями Харпер и Мейсоном отправляются в солнечную Италию. Но Алекс остается дома, желая доказать близким, что она взрослая, и у нее своя жизнь. Вот только экспериментируя с заклинаниями, она случайно разделяет свою душу пополам. Наружу выходит злая Алекс, мечтающая захватить мир. А добрая кудесница вынуждена не только её усмирять, но и лететь через океан, чтобы спасти близких от чар злодейки.
Сэмпл: http://sendfile.su/1183601
Тип релиза: WEB-DL 1080p
Контейнер: MKV
Видео: 1920x1080 (16:9), 23.976 fps, AVC, ~4932 kbps, 0.099 bits/pixel
Аудио 1: Russian, 48.0 KHz, AC3, 2 ch, 192 kbps
Аудио 2: English, 48.0 KHz, AC3, 6 ch, 384 kbps
Формат субтитров: softsub (SRT)
MediaInfo
General
Unique ID : 183778431637713872017153028717777111160 (0x8A42703F11B6E1B587557E53BB2DC878)
Complete name : The.Wizards.Return.Alex.Vs.Alex.2013.WEB-DL.1080p.rus.eng.mkv
Format : Matroska
Format version : Version 4 / Version 2
File size : 2.30 GiB
Duration : 58mn 39s
Overall bit rate : 5 620 Kbps
Encoded date : UTC 2015-12-15 16:52:04
Writing application : mkvmerge v8.3.0 ('Over the Horizon') 64bit
Writing library : libebml v1.3.1 + libmatroska v1.4.2
Video
ID : 1
Format : AVC
Format/Info : Advanced Video Codec
Format profile : High@L4
Format settings, CABAC : Yes
Format settings, ReFrames : 4 frames
Codec ID : V_MPEG4/ISO/AVC
Duration : 58mn 39s
Bit rate : 4 932 Kbps
Width : 1 920 pixels
Height : 1 080 pixels
Display aspect ratio : 16:9
Frame rate mode : Constant
Frame rate : 23.976 (24000/1001) fps
Color space : YUV
Chroma subsampling : 4:2:0
Bit depth : 8 bits
Scan type : Progressive
Bits/(Pixel*Frame) : 0.099
Stream size : 2.02 GiB (88%)
Language : English
Default : Yes
Forced : No
Color range : Limited
Color primaries : BT.709
Transfer characteristics : BT.709
Matrix coefficients : BT.709
Audio #1
ID : 2
Format : AC-3
Format/Info : Audio Coding 3
Mode extension : CM (complete main)
Format settings, Endianness : Big
Codec ID : A_AC3
Duration : 58mn 39s
Bit rate mode : Constant
Bit rate : 192 Kbps
Channel(s) : 2 channels
Channel positions : Front: L R
Sampling rate : 48.0 KHz
Frame rate : 31.250 fps (1536 spf)
Compression mode : Lossy
Stream size : 80.6 MiB (3%)
Language : Russian
Default : Yes
Forced : No
Audio #2
ID : 3
Format : AC-3
Format/Info : Audio Coding 3
Mode extension : CM (complete main)
Format settings, Endianness : Big
Codec ID : A_AC3
Duration : 58mn 39s
Bit rate mode : Constant
Bit rate : 384 Kbps
Channel(s) : 6 channels
Channel positions : Front: L C R, Side: L R, LFE
Sampling rate : 48.0 KHz
Frame rate : 31.250 fps (1536 spf)
Compression mode : Lossy
Stream size : 161 MiB (7%)
Language : English
Default : No
Forced : No
Text #1
ID : 4
Format : UTF-8
Codec ID : S_TEXT/UTF8
Codec ID/Info : UTF-8 Plain Text
Language : Russian
Default : No
Forced : No
Text #2
ID : 5
Format : UTF-8
Codec ID : S_TEXT/UTF8
Codec ID/Info : UTF-8 Plain Text
Language : English
Default : No
Forced : No
Скриншоты
Скачать

Скачать торрент!

Как скачивать? · Что такое торрент? · Рейтинг и ограничения

Сайт не распространяет и не хранит электронные версии произведений, а лишь предоставляет доступ к создаваемому пользователями каталогу ссылок на торрент-файлы, которые содержат только списки хеш-сумм

[Профиль] [ЛС]
Показать сообщения:    
Ответить на тему

Текущее время: Сегодня 22:15

Часовой пояс: GMT + 4



Вы не можете начинать темы
Вы не можете отвечать на сообщения
Вы не можете редактировать свои сообщения
Вы не можете удалять свои сообщения
Вы не можете голосовать в опросах
Вы не можете прикреплять файлы к сообщениям
Вы не можете скачивать файлы