Откройте, Дед Мороз! (Ольга Субботина) [2007, комедия, мелодрамма, DVDRip]

Ответить на тему
 
Автор Сообщение

user ®

Стаж: 7 лет 7 месяцев

Сообщений: 20008

Пост Пост: #1 от 15-Дек-2015 03:30

[Цитировать]

Откройте, Дед Мороз
Год выпуска: 2007
Жанр: комедия, мелодрамма
Продолжительность: 01:38:17.040 (147426 frames)
Субтитры: нет
Режиссер: Ольга Субботина
В ролях: Любовь Толкалина, Константин Лавроненко, Марина Голуб, Сергей Баталов, Ирина Гринева, Артем Смола
Описание: Эта история случилась в ночь с 31 декабря на 1 января . Молодая незамужняя женщина Женя, по старой традиции, готовились принимать гостей, поэтому с утра была занята на кухне. Нельзя сказать, что это доставляло ей огромную радость, но - традиция есть традиция. А маленький сын Жени Гриша, тоже по традиции, ждал Деда Мороза. Женя, как всегда, обещала сыну, что Дед Мороз обязательно придет, но семилетний Гриша уже мало верил в то, что подарок, который он непременно найдет утром под подушкой, будет именно от Деда Мороза.
Качество: DVDRip
Формат: AVI
Видео кодек: XviD
Аудио кодек: АС3
Видео: 720x400 (1.80:1), 25 fps, XviD build 73 ~1727 kbps avg, 0.24 bit/pixel
Аудио: 48 kHz, AC3 Dolby Digital, 3/2 (L,C,R,l,r) + LFE ch, ~384.00 kbps avg
Скриншоты Медиаинфо
F:\004 Мои раздачи\Откройте дед мороз 1,46\otkroite_ded_moroz_1.46_[torrents.ru]_by_bm11.avi
General
Complete name : F:\004 Мои раздачи\Откройте дед мороз 1,46\otkroite_ded_moroz_1.46_[torrents.ru]_by_bm11.avi
Format : AVI
Format/Info : Audio Video Interleave
File size : 1.46 GiB
Duration : 1h 38mn
Overall bit rate : 2 121 Kbps
Director : bm11
Writing application : VirtualDubMod 1.5.10.3 | www.virtualdub-fr.org || (build 2550/release)
Video
Format : MPEG-4 Visual
Format profile : Streaming Video@L1
Format settings, BVOP : Yes
Format settings, QPel : No
Format settings, GMC : No warppoints
Format settings, Matrix : Custom
Codec ID : XVID
Codec ID/Hint : XviD
Duration : 1h 38mn
Bit rate : 1 728 Kbps
Width : 720 pixels
Height : 400 pixels
Display aspect ratio : 16/9
Frame rate : 25.000 fps
Resolution : 24 bits
Colorimetry : 4:2:0
Scan type : Progressive
Bits/(Pixel*Frame) : 0.240
Stream size : 1.19 GiB (81%)
Writing library : XviD 73
Audio
Format : AC-3
Format/Info : Audio Coding 3
Codec ID : 2000
Duration : 1h 38mn
Bit rate mode : Constant
Bit rate : 384 Kbps
Channel(s) : 6 channels
Channel positions : Front: L C R, Surround: L R, LFE
Sampling rate : 48.0 KHz
Stream size : 270 MiB (18%)
Alignment : Split accross interleaves
Interleave, duration : 40 ms (1.00 video frame)
Interleave, preload duration : 500 ms
Исходник
[url=http://***/forum/viewtopic.php?t=2664646]http://***/forum/viewtopic.php?t=2664646[/url]
Семпл Сравнение
[url=http://***/forum/viewtopic.php?t=603356]http://***/forum/viewtopic.php?t=603356[/url]
http://screenshotcomparison.com/comparison/154384/picture:3
Скачать

Скачать торрент!

Как скачивать? · Что такое торрент? · Рейтинг и ограничения

Сайт не распространяет и не хранит электронные версии произведений, а лишь предоставляет доступ к создаваемому пользователями каталогу ссылок на торрент-файлы, которые содержат только списки хеш-сумм

[Профиль] [ЛС]
Показать сообщения:    
Ответить на тему

Текущее время: Сегодня 16:18

Часовой пояс: GMT + 4



Вы не можете начинать темы
Вы не можете отвечать на сообщения
Вы не можете редактировать свои сообщения
Вы не можете удалять свои сообщения
Вы не можете голосовать в опросах
Вы не можете прикреплять файлы к сообщениям
Вы не можете скачивать файлы