Откройте, Дед Мороз! (Ольга Субботина) [2007, комедия, мелодрамма, DVDRip]

Ответить на тему
 
Автор Сообщение

user ®

Стаж: 7 лет 7 месяцев

Сообщений: 20008

Пост Пост: #1 от 15-Дек-2015 03:30

[Цитировать]

Откройте, Дед Мороз
Год выпуска: 2007
Жанр: комедия, мелодрамма
Продолжительность: 01:38:17.040 (147426 frames)
Субтитры: нет
Режиссер: Ольга Субботина
В ролях: Любовь Толкалина, Константин Лавроненко, Марина Голуб, Сергей Баталов, Ирина Гринева, Артем Смола
Описание: Эта история случилась в ночь с 31 декабря на 1 января . Молодая незамужняя женщина Женя, по старой традиции, готовились принимать гостей, поэтому с утра была занята на кухне. Нельзя сказать, что это доставляло ей огромную радость, но - традиция есть традиция. А маленький сын Жени Гриша, тоже по традиции, ждал Деда Мороза. Женя, как всегда, обещала сыну, что Дед Мороз обязательно придет, но семилетний Гриша уже мало верил в то, что подарок, который он непременно найдет утром под подушкой, будет именно от Деда Мороза.
Качество: DVDRip
Формат: AVI
Видео кодек: XviD
Аудио кодек: МР3
Видео: 656x368 (1.78:1), 25 fps, XviD build 73 ~921 kbps avg, 0.15 bit/pixel
Аудио: 48 kHz, MPEG Layer 3, 2 ch, ~128.00 kbps avg
Скриншоты Медиаинфо
F:\004 Мои раздачи\Откройте дед мороз 745\otkroite_ded_moroz_745_[torrents.ru]_by_bm11.avi
General
Complete name : F:\004 Мои раздачи\Откройте дед мороз 745\otkroite_ded_moroz_745_[torrents.ru]_by_bm11.avi
Format : AVI
Format/Info : Audio Video Interleave
File size : 745 MiB
Duration : 1h 38mn
Overall bit rate : 1 059 Kbps
Director : bm11
Writing application : VirtualDubMod 1.5.10.3 | www.virtualdub-fr.org || (build 2550/release)
Video
Format : MPEG-4 Visual
Format profile : Streaming Video@L1
Format settings, BVOP : Yes
Format settings, QPel : No
Format settings, GMC : No warppoints
Format settings, Matrix : Custom
Codec ID : XVID
Codec ID/Hint : XviD
Duration : 1h 38mn
Bit rate : 922 Kbps
Width : 656 pixels
Height : 368 pixels
Display aspect ratio : 16/9
Frame rate : 25.000 fps
Resolution : 24 bits
Colorimetry : 4:2:0
Scan type : Progressive
Bits/(Pixel*Frame) : 0.153
Stream size : 648 MiB (87%)
Writing library : XviD 73
Audio
Format : MPEG Audio
Format version : Version 1
Format profile : Layer 3
Codec ID : 55
Codec ID/Hint : MP3
Duration : 1h 38mn
Bit rate mode : Constant
Bit rate : 128 Kbps
Minimum bit rate : 128 Kbps
Channel(s) : 2 channels
Sampling rate : 48.0 KHz
Resolution : 16 bits
Stream size : 90.0 MiB (12%)
Alignment : Aligned on interleaves
Interleave, duration : 40 ms (1.00 video frame)
Interleave, preload duration : 504 ms
Writing library : LAME3.99r
Encoding settings : CBR
Исходник
[url=http://***/forum/viewtopic.php?t=2664646]http://***/forum/viewtopic.php?t=2664646[/url]
Семпл Сравнение
[url=http://***/forum/viewtopic.php?t=2554664]http://***/forum/viewtopic.php?t=2554664[/url]
http://screenshotcomparison.com/comparison/154386/picture:0
Скачать

Скачать торрент!

Как скачивать? · Что такое торрент? · Рейтинг и ограничения

Сайт не распространяет и не хранит электронные версии произведений, а лишь предоставляет доступ к создаваемому пользователями каталогу ссылок на торрент-файлы, которые содержат только списки хеш-сумм

[Профиль] [ЛС]
Показать сообщения:    
Ответить на тему

Текущее время: Сегодня 22:19

Часовой пояс: GMT + 4



Вы не можете начинать темы
Вы не можете отвечать на сообщения
Вы не можете редактировать свои сообщения
Вы не можете удалять свои сообщения
Вы не можете голосовать в опросах
Вы не можете прикреплять файлы к сообщениям
Вы не можете скачивать файлы