Стеклянные бусы (Игорь Николаев) [1978, детский, DVB, AVC]

Ответить на тему
 
Автор Сообщение

user ®

Стаж: 7 лет 7 месяцев

Сообщений: 20008

Пост Пост: #1 от 15-Дек-2015 03:30

[Цитировать]

Стеклянные бусы
Жанр: детский
Год выпуска: 1978
Продолжительность: 01:06:57
Режиссёр: Игорь Николаев
В ролях: Людмила Гравес, Бакыт Арстанбеков, Лаймонас Норейка, Валентина Устимович, Дагба Дондуков, Оля Ким, Сережа Поляков, Валерий Баринов, Виктор Чеботарев
Описание: Отец двенадцатилетней Маши большую часть времени проводит в плавании, и живет в Петропавловске-Камчатском, хотя девочка с мамой - в Одессе. Маша давно мечтала о поездке на Камчатку, и вот долгожданный день наступил. Лето и для отца и для девочки пройдет как один день: Маша два месяца проведет с отцом на острове Беринга, подружится с алеутом Радиком - и убедит маму вообще не возвращаться в Одессу.
Качество видео: DVB-AVC
Формат видео: MKV
Видео: H.264/AVC, 720x576, 1.36:1, 25.00fps, 1871 Kbps
Аудио: MP2 2.0, 48 kHz, 192 kbps
Сравнение
[url=http://***/forum/viewtopic.php?t=1091713]http://***/forum/viewtopic.php?t=1091713[/url]
http://screenshotcomparison.com/comparison/154414
MediaInfo
General
Unique ID : 238101293149510771693796528223641426812 (0xB320A41A5F185508BD84C33BA34C5B7C)
Complete name : Стеклянные бусы (1978) DVB.mkv
Format : Matroska
Format version : Version 4 / Version 2
File size : 1 008 MiB
Duration : 1h 6mn
Overall bit rate : 2 104 Kbps
Encoded date : UTC 2015-12-14 20:27:36
Writing application : mkvmerge v8.1.0 ('Psychedelic Postcard') 64bit
Writing library : libebml v1.3.1 + libmatroska v1.4.2
Video
ID : 1
Format : AVC
Format/Info : Advanced Video Codec
Format profile : Main@L3.0
Format settings, CABAC : Yes
Format settings, ReFrames : 4 frames
Format settings, GOP : M=4, N=24
Codec ID : V_MPEG4/ISO/AVC
Duration : 1h 6mn
Bit rate : 1 871 Kbps
Width : 720 pixels
Height : 576 pixels
Display aspect ratio : 4:3
Original display aspect ratio : 4:3
Frame rate mode : Constant
Frame rate : 25.000 fps
Standard : Component
Color space : YUV
Chroma subsampling : 4:2:0
Bit depth : 8 bits
Scan type : Interlaced
Scan order : Top Field First
Bits/(Pixel*Frame) : 0.180
Stream size : 896 MiB (89%)
Default : No
Forced : No
Color primaries : BT.601 PAL
Transfer characteristics : BT.470 System B, BT.470 System G
Matrix coefficients : BT.601
Color range : Limited
DURATION : 01:06:57.160000000
NUMBER_OF_FRAMES : 100429
NUMBER_OF_BYTES : 959264277
_STATISTICS_WRITING_APP : mkvmerge v8.1.0 ('Psychedelic Postcard') 64bit
_STATISTICS_WRITING_DATE_UTC : 2015-12-14 20:27:36
_STATISTICS_TAGS : BPS DURATION NUMBER_OF_FRAMES NUMBER_OF_BYTES
Audio
ID : 2
Format : MPEG Audio
Format version : Version 1
Format profile : Layer 2
Codec ID : A_MPEG/L2
Codec ID/Hint : MP2
Duration : 1h 6mn
Bit rate mode : Constant
Bit rate : 192 Kbps
Channel(s) : 2 channels
Sampling rate : 48.0 KHz
Compression mode : Lossy
Stream size : 91.9 MiB (9%)
Language : Russian
Default : Yes
Forced : No
DURATION : 01:06:57.168000000
NUMBER_OF_FRAMES : 167382
NUMBER_OF_BYTES : 96412032
_STATISTICS_WRITING_APP : mkvmerge v8.1.0 ('Psychedelic Postcard') 64bit
_STATISTICS_WRITING_DATE_UTC : 2015-12-14 20:27:36
_STATISTICS_TAGS : BPS DURATION NUMBER_OF_FRAMES NUMBER_OF_BYTES
Скриншоты
Скачать

Скачать торрент!

Как скачивать? · Что такое торрент? · Рейтинг и ограничения

Сайт не распространяет и не хранит электронные версии произведений, а лишь предоставляет доступ к создаваемому пользователями каталогу ссылок на торрент-файлы, которые содержат только списки хеш-сумм

[Профиль] [ЛС]
Показать сообщения:    
Ответить на тему

Текущее время: Сегодня 04:18

Часовой пояс: GMT + 4



Вы не можете начинать темы
Вы не можете отвечать на сообщения
Вы не можете редактировать свои сообщения
Вы не можете удалять свои сообщения
Вы не можете голосовать в опросах
Вы не можете прикреплять файлы к сообщениям
Вы не можете скачивать файлы