Санта на продажу / Rare Exports (Ялмари Хеландер / Jalmari Helander) [2010, Швеция, Финляндия, Франция, Норвегия, фэнтези, боевик, комедия, DVDRip] DUB (R5)

Ответить на тему
 
Автор Сообщение

user ®

Стаж: 7 лет 7 месяцев

Сообщений: 20008

Пост Пост: #1 от 25-Дек-2010 01:28

[Цитировать]

Санта на продажу / Rare Exports
Страна: Швеция, Финляндия, Франция, Норвегия
Студия: Agnès b. Productions, Cinet, Davaj Film
Жанр: фэнтези, боевик, комедия
Год выпуска: 2010
Продолжительность: 01:19:12
Перевод: Профессиональный (дублированный) лицензия
Субтитры: нет
Оригинальная аудиодорожка: нет
Режиссер: Ялмари Хеландер / Jalmari Helander
В ролях: Пер Кристиан Эллефсен, Питер Якоби, Томми Корпела, Jorma Tommila, Onni Tommila, Джонатан Хатчингс, Ристо Сэлми, Рауно Джавонен, Илмари Ярвенпаа...
Описание: Это фильм для тех, кто думает, что он уже не верит в Санта Клауса. Далеко в заснеженных горах Лапландии, в ущелье на глубине 486 метров обнаружили находку, надежно укрытую от всех. Теперь пришло время открыть ее миру.
Бюджет: ?1 948 000

Тип релиза: DVDRip
Контейнер: AVI
Видео: 720x304 (2.35:1), 25.000 fps, XVID ~2236 kbps avg, 0.409 bit/pixel
Аудио : 48 kHz, AC3, 6 ch, 384.00 kbps Constant MVO

MediaInfo

Общее
Полное имя : Santa.na.prodazhu.2010.D.DVDRip.avi
Формат : AVI
Формат/Информация : Audio Video Interleave
Размер файла : 1,45 Гбайт
Продолжительность : 1 ч. 19 м.
Общий поток : 2629 Кбит/сек
Программа кодирования : VirtualDubMod 1.5.10.3 (build 2550/release)
Библиотека кодирования : VirtualDubMod build 2550/release
Видео
Идентификатор : 0
Формат : MPEG-4 Visual
Профиль формата : Advanced Simple@L5
Параметр BVOP формата : Да
Параметр QPel формата : Нет
Параметр GMC формата : Без точки перехода
Параметр матрицы формата : Выборочная
Идентификатор кодека : XVID
Идентификатор кодека/Подсказка : XviD
Продолжительность : 1 ч. 19 м.
Битрейт : 2236 Кбит/сек
Ширина : 720 пикс.
Высота : 304 пикс.
Соотношение сторон : 2,35:1
Частота кадров : 25,000 кадр/сек
Цветовое пространство : YUV
Подвыборка цветности : 4:2:0
Битовая глубина : 8 бит
Тип развёртки : Прогрессивная
Метод сжатия : С потерями
Бит/(Пиксели*Кадры) : 0.409
Размер потока : 1,24 Гбайт (85%)
Библиотека кодирования : XviD 1.2.1 (UTC 2008-12-04)
Аудио
Идентификатор : 1
Формат : AC-3
Формат/Информация : Audio Coding 3
Расширение режима : CM (complete main)
Идентификатор кодека : 2000
Продолжительность : 1 ч. 19 м.
Вид битрейта : Постоянный
Битрейт : 384 Кбит/сек
Канал(ы) : 6 канала(ов)
Расположение каналов : Front: L C R, Side: L R, LFE
Частота : 48,0 КГц
Битовая глубина : 16 бит
Метод сжатия : С потерями
Размер потока : 217 Мбайт (15%)
Выравнивание : Разделение по промежуткам
Продолжительность промежутка : 40 мс. (1,00 видеокадр)
Время предзагрузки промежутка : 500 ms

Скриншот с названием

Скриншоты

Скачать

Скачать торрент!

Как скачивать? · Что такое торрент? · Рейтинг и ограничения

Сайт не распространяет и не хранит электронные версии произведений, а лишь предоставляет доступ к создаваемому пользователями каталогу ссылок на торрент-файлы, которые содержат только списки хеш-сумм

[Профиль] [ЛС]
Показать сообщения:    
Ответить на тему

Текущее время: Сегодня 06:00

Часовой пояс: GMT + 4



Вы не можете начинать темы
Вы не можете отвечать на сообщения
Вы не можете редактировать свои сообщения
Вы не можете удалять свои сообщения
Вы не можете голосовать в опросах
Вы не можете прикреплять файлы к сообщениям
Вы не можете скачивать файлы