Скорость: Автобус 657 / Heist (Скотт Манн / Scott Mann) [2015, США, боевик, триллер, криминал, BDRip-AVC] Dub + Sub (Eng)

Ответить на тему
 
Автор Сообщение

user ®

Стаж: 7 лет 7 месяцев

Сообщений: 20008

Пост Пост: #1 от 13-Дек-2015 20:33

[Цитировать]

Скорость: Автобус 657
Heist
«Её жизнь дороже его смерти»

Страна: США
Жанр: боевик, триллер, криминал
Год выпуска: 2015
Продолжительность: 01:32:19
Перевод: Профессиональный (полное дублирование) [Лицензия iTunes]
Субтитры: английские
Оригинальная аудиодорожка: нет
Режиссер: Скотт Манн / Scott Mann
В ролях: Джеффри Дин Морган, Роберт Де Ниро, Кейт Босворт, Дэйв Батиста, Джина Карано, Моррис Честнат, Марк-Пол Госселаар, Д.Б. Суини, Саммер Элтис, Алисса Джулия Смит, Лидия Халл, Кортни Би Турк
Описание:
Все знают, что обокрасть Фрэнка Поупа, владельца казино и босса мафии - это самоубийство. Но однажды некогда преданный ему крупье решается вынести из кассы казино несколько миллионов долларов. Все было продумано, но план не сработал. Скрываясь с места преступления, грабители захватывают автобус, полный заложников. На бешеной скорости автобус мчится к мексиканской границе. Топливо на пределе. На хвосте - мафия и полиция. И, кажется, выхода нет... Релиз:
Автор рипа: Stalker oK
Сэмпл
Качество видео: BDRip-AVC [bluebird / Blu-ray Disc / 1080p]
Формат видео: MKV
Видео кодек: AVC
Аудио кодек: AC3
Видео: 1819 Кбит/сек, 1008x420 (2.40:1), 23,976 кадр/сек, AVC
Аудио: русский, 384 Кбит/сек, 48 КГц, 16 бит, 5.1, AC3
Навигация по главам: есть

MediaInfo
Общее
Уникальный идентификатор : 190955863914863230567748910855878667733 (0x8FA8C2FAA469290EBE76D5842E50EDD5)
Полное имя : M:\Rips\Heist\Heist.2015.BDRip-AVC.Dub.1.45Gb.stalkerok.new-team.mkv
Формат : Matroska
Размер файла : 1,42 Гбайт
Продолжительность : 1 ч. 32 м.
Общий поток : 2201 Кбит/сек
Название фильма : Heist (2015) (New-Team) (Rip by Stalker oK)
Дата кодирования : UTC 2015-12-13 11:34:16
Программа кодирования : mkvmerge v7.9.0 ('Birds') 64bit
Библиотека кодирования : libebml v1.3.1 + libmatroska v1.4.2
Видео
Идентификатор : 1
Формат : AVC
Формат/Информация : Advanced Video Codec
Профиль формата : High@L4.1
Параметр CABAC формата : Да
Параметр ReFrames формата : 13 кадры
Идентификатор кодека : V_MPEG4/ISO/AVC
Продолжительность : 1 ч. 32 м.
Битрейт : 1819 Кбит/сек
Ширина : 1008 пикс.
Высота : 420 пикс.
Соотношение сторон : 2,40:1
Частота кадров : 23,976 кадр/сек
Цветовое пространство : YUV
Подвыборка цветности : 4:2:0
Битовая глубина : 8 бит
Тип развёртки : Прогрессивная
Бит/(Пиксели*Кадры) : 0.179
Размер потока : 1,14 Гбайт (81%)
Заголовок : Heist (2015) (New-Team) (Rip by Stalker oK)
Библиотека кодирования : x264 core 148 r2638 7599210
Настройки программы : cabac=1 / ref=13 / deblock=1:-3:-3 / analyse=0x3:0x133 / me=umh / subme=11 / psy=1 / psy_rd=1.00:0.10 / mixed_ref=1 / me_range=48 / chroma_me=1 / trellis=2 / 8x8dct=1 / cqm=0 / deadzone=21,11 / fast_pskip=0 / chroma_qp_offset=-3 / threads=12 / lookahead_threads=3 / sliced_threads=0 / nr=0 / decimate=0 / interlaced=0 / bluray_compat=0 / constrained_intra=0 / bframes=14 / b_pyramid=2 / b_adapt=2 / b_bias=0 / direct=3 / weightb=1 / open_gop=0 / weightp=2 / keyint=240 / keyint_min=23 / scenecut=40 / intra_refresh=0 / rc_lookahead=60 / rc=2pass / mbtree=0 / bitrate=1819 / ratetol=1.0 / qcomp=0.70 / qpmin=0 / qpmax=69 / qpstep=4 / cplxblur=20.0 / qblur=0.5 / vbv_maxrate=50000 / vbv_bufsize=62500 / nal_hrd=none / filler=0 / ip_ratio=1.40 / pb_ratio=1.30 / aq=3:0.90
Аудио
Идентификатор : 2
Формат : AC-3
Формат/Информация : Audio Coding 3
Расширение режима : CM (complete main)
Идентификатор кодека : A_AC3
Продолжительность : 1 ч. 32 м.
Вид битрейта : Постоянный
Битрейт : 384 Кбит/сек
Канал(ы) : 6 канала(ов)
Расположение каналов : Front: L C R, Side: L R, LFE
Частота : 48,0 КГц
Битовая глубина : 16 бит
Метод сжатия : С потерями
Размер потока : 254 Мбайт (17%)
Язык : Russian
Текст
Идентификатор : 3
Формат : UTF-8
Идентификатор кодека : S_TEXT/UTF8
Идентификатор кодека/Информация : UTF-8 Plain Text
Язык : English
Меню
00:00:00.000 : en:Chapter 1
00:06:23.841 : en:Chapter 2
00:11:36.654 : en:Chapter 3
00:18:00.412 : en:Chapter 4
00:27:25.769 : en:Chapter 5
00:34:27.065 : en:Chapter 6
00:44:30.209 : en:Chapter 7
00:54:44.030 : en:Chapter 8
01:03:00.443 : en:Chapter 9
01:09:18.154 : en:Chapter 10
01:18:53.145 : en:Chapter 11
01:26:54.334 : en:Chapter 12
Скриншоты
Скачать

Скачать торрент!

Как скачивать? · Что такое торрент? · Рейтинг и ограничения

Сайт не распространяет и не хранит электронные версии произведений, а лишь предоставляет доступ к создаваемому пользователями каталогу ссылок на торрент-файлы, которые содержат только списки хеш-сумм

[Профиль] [ЛС]
Показать сообщения:    
Ответить на тему

Текущее время: Сегодня 16:16

Часовой пояс: GMT + 4



Вы не можете начинать темы
Вы не можете отвечать на сообщения
Вы не можете редактировать свои сообщения
Вы не можете удалять свои сообщения
Вы не можете голосовать в опросах
Вы не можете прикреплять файлы к сообщениям
Вы не можете скачивать файлы