Ниндзя - изгои / Rogue Ninja / Nukenin (Сеиджи Шиба / Seiji Chiba) [2009, Япония, Боевые искусства, DVDRip] DVO (Группа "Колобок")

Ответить на тему
 
Автор Сообщение

user ®

Стаж: 13 лет

Сообщений: 15071

Пост Пост: #1 от 12-Дек-2015 19:48

[Цитировать]

Ниндзя - изгои / Rogue Ninja / Nukenin
Страна: Япония
Жанр: Боевые искусства
Год выпуска: 2009
Продолжительность: 01:09:49
Перевод: Любительский (двухголосый закадровый) Группа "Колобок"
Cубтитры: нет
Оригинальная аудиодорожка: нет
Режиссер: Сеиджи Шиба / Seiji Chiba
В ролях: Мика Хиджи, Изуми Масаюки, Татцуми Нацуко
Описание: В фильме рассказывается об участии в гражданской войне двух кланов ниндзя в Японии 16 века.
Доп. информация: DVD с Кинозала
Сэмпл:http://multi-up.com/1079171
Качество видео: DVDRip
Формат видео: AVI
Видео: 720x400 (1.80:1), 25 fps, XviD build 65 ~1295 kbps avg, 0.18 bit/pixel
Аудио: 48 kHz, AC3 Dolby Digital, 2/0 (L,R) ch, ~192.00 kbps avg
MediaInfo
General
Complete name : D:\Rogue Ninja.avi
Format : AVI
Format/Info : Audio Video Interleave
File size : 745 MiB
Duration : 1h 9mn
Overall bit rate : 1 493 Kbps
Writing application : VirtualDubMod 1.5.10.3 (build 2550/release)
Writing library : VirtualDubMod build 2550/release
Video
ID : 0
Format : MPEG-4 Visual
Format profile : Advanced Simple@L5
Format settings, BVOP : 2
Format settings, QPel : No
Format settings, GMC : No warppoints
Format settings, Matrix : Default (H.263)
Codec ID : XVID
Codec ID/Hint : XviD
Duration : 1h 9mn
Bit rate : 1 295 Kbps
Width : 720 pixels
Height : 400 pixels
Display aspect ratio : 16:9
Frame rate : 25.000 fps
Color space : YUV
Chroma subsampling : 4:2:0
Bit depth : 8 bits
Scan type : Progressive
Compression mode : Lossy
Bits/(Pixel*Frame) : 0.180
Stream size : 646 MiB (87%)
Writing library : XviD 65
Audio
ID : 1
Format : AC-3
Format/Info : Audio Coding 3
Mode extension : CM (complete main)
Format settings, Endianness : Big
Codec ID : 2000
Duration : 1h 9mn
Bit rate mode : Constant
Bit rate : 192 Kbps
Channel(s) : 2 channels
Channel positions : Front: L R
Sampling rate : 48.0 KHz
Bit depth : 16 bits
Compression mode : Lossy
Stream size : 95.9 MiB (13%)
Alignment : Aligned on interleaves
Interleave, duration : 160 ms (4.00 video frames)
Interleave, preload duration : 640 ms
Скриншот c названием фильма Скриншоты
Скачать

Скачать торрент! Ниндзя - изгои / Rogue Ninja / Nukenin (Сеиджи Шиба / Seiji Chiba) [2009, Япония, Боевые искусства, DVDRip] DVO (Группа "Колобок")

Как скачивать? · Что такое торрент? · Рейтинг и ограничения

Сайт не распространяет и не хранит электронные версии произведений, а лишь предоставляет доступ к создаваемому пользователями каталогу ссылок на торрент-файлы, которые содержат только списки хеш-сумм

[Профиль] [ЛС]
Показать сообщения:    
Ответить на тему

Текущее время: Сегодня 21:22

Часовой пояс: GMT + 4



Вы не можете начинать темы
Вы не можете отвечать на сообщения
Вы не можете редактировать свои сообщения
Вы не можете удалять свои сообщения
Вы не можете голосовать в опросах
Вы не можете прикреплять файлы к сообщениям
Вы не можете скачивать файлы