Люди, места, вещи / People Places Things (Джеймс С. Страуз / James C. Strouse) [2015, США, Лирическая комедия, психологическая драма, WEB-DLRip] DVO

Ответить на тему
 
Автор Сообщение

user ®

Стаж: 7 лет 7 месяцев

Сообщений: 20008

Пост Пост: #1 от 12-Дек-2015 19:48

[Цитировать]

Люди, места, вещи / People Places Things
Страна: США
Жанр: Лирическая комедия, психологическая драма
Год выпуска: 2015
Продолжительность: 01:26:39
Перевод: Профессиональный (двухголосый закадровый)
Cубтитры: отсутствуют
Оригинальная аудиодорожка: нет
Режиссёр и сценарист: Джеймс С. Страуз / James C. Strouse
Актёры: Джемейн Клемент, Реджина Холл, Джессика Уильямс, Стефания Эллайнн, Майкл Чернус, Ондреа Гадсби, Гия Гадсби, Деррик Артур, Селия Ау, Катрин Кэйн, и др.
Краткая аннотация: Любимая женщина рисовальщика комиксов, подкинула ему тему для очередного сюжета... После многолетних раздумий и колебаний, попутно родив от него двоих прекрасных дочерей, она решилась выйти замуж... Только почему-то не за рисовальщика комиксов, хотя по прежнему всё ещё любит его...

Качество видео: WEB-DLRip
Формат видео: AVI
Video: 688x384 (1.79:1), 23.976 fps, XviD build 67 ~1071 kbps avg, 0.17 bit/pixel
Audio: 48 kHz, MPEG Layer 3, 2 ch, ~128.00 kbps avg
AviInfo
File: People_Places_Things_2015_WEB-DLRip_[***].aviTitle: People_Places_Things_2015_WEB-DLRip_[***]Author: OGORODNIKOFFFCopyleft: rutracker.orgGenre: Комедия, драмаCategory: Фильмы 2015Comment: Дата рипа 11 декабря 2015 годаFilesize: 749.41 Mb ( 785 817 600 bytes )Play length: 01:26:39.032 (124652 frames)Subtitles: Not PresentVideo: 688x384 (1.79:1), 23.976 fps, XviD build 67 ~1071 kbps avg, 0.17 bit/pixelAudio: 48 kHz, MPEG Layer 3, 2 ch, ~128.00 kbps avg
MediaInfo
ОбщееПолное имя : S:\People_Places_Things_2015_WEB-DLRip_[***].aviФормат : AVIФормат/Информация : Audio Video InterleaveРазмер файла : 749 МбайтПродолжительность : 1 ч. 26 м.Общий поток : 1209 Кбит/секНазвание фильма : People_Places_Things_2015_WEB-DLRip_[***]Режиссёр : OGORODNIKOFFFЖанр : Комедия, драмаПрограмма кодирования : VirtualDubModRus 1.5.10.2 (build 2542/release)Формат оригинала/Имя : Фильмы 2015Правообладатель : rutracker.orgПримечание : Дата рипа 11 декабря 2015 года
ВидеоИдентификатор : 0Формат : MPEG-4 VisualПрофиль формата : Advanced Simple@L5Параметр BVOP формата : 1Параметр QPel формата : НетПараметр GMC формата : Без точки переходаПараметр матрицы формата : Default (MPEG)Идентификатор кодека : DX50Идентификатор кодека/Подсказка : DivX 5Продолжительность : 1 ч. 26 м.Битрейт : 1072 Кбит/секШирина : 688 пикселейВысота : 384 пикселяСоотношение сторон : 16:9Частота кадров : 23,976 кадра/секЦветовое пространство : YUVСубдискретизация насыщенности : 4:2:0Битовая глубина : 8 битТип развёртки : ПрогрессивнаяМетод сжатия : С потерямиБит/(Пиксели*Кадры) : 0.169Размер потока : 664 Мбайт (89%)Библиотека кодирования : XviD 67
АудиоИдентификатор : 1Формат : MPEG AudioВерсия формата : Version 1Профиль формата : Layer 3Режим : Joint stereoРасширение режима : MS StereoИдентификатор кодека : 55Идентификатор кодека/Подсказка : MP3Продолжительность : 1 ч. 26 м.Вид битрейта : ПостоянныйБитрейт : 128 Кбит/секКаналы : 2 каналаЧастота : 48,0 КГцМетод сжатия : С потерямиРазмер потока : 79,3 Мбайт (11%)Выравнивание : Соединение по промежуткамПродолжительность промежутка : 42 мс. (1,00 видеокадр)Время предзагрузки промежутка : 504 мс.Библиотека кодирования : LAMELAME_MAJOR_VERSI
Скриншот c названием фильма Скриншоты Время раздачи - по возможности.
Скачать

Скачать торрент!

Как скачивать? · Что такое торрент? · Рейтинг и ограничения

Сайт не распространяет и не хранит электронные версии произведений, а лишь предоставляет доступ к создаваемому пользователями каталогу ссылок на торрент-файлы, которые содержат только списки хеш-сумм

[Профиль] [ЛС]
Показать сообщения:    
Ответить на тему

Текущее время: Сегодня 07:03

Часовой пояс: GMT + 4



Вы не можете начинать темы
Вы не можете отвечать на сообщения
Вы не можете редактировать свои сообщения
Вы не можете удалять свои сообщения
Вы не можете голосовать в опросах
Вы не можете прикреплять файлы к сообщениям
Вы не можете скачивать файлы