Город монстров / Tales of Halloween (Даррен Линн Боусман / Darren Lynn Bousman, Адам Гираш / Adam Gierasch, Нил Маршалл / Neil Marshall) [2015, США, ужасы, HDRip] Dub (Line)

Ответить на тему
 
Автор Сообщение

user ®

Стаж: 7 лет 7 месяцев

Сообщений: 20008

Пост Пост: #1 от 12-Дек-2015 13:36

[Цитировать]

Город монстров / Tales of Halloween
Страна: США
Жанр: ужасы
Год выпуска: 2015
Продолжительность: 01:37:15
Перевод: Профессиональный (дублированный) Line
Cубтитры: нет
Оригинальная аудиодорожка: нет
Режиссер: Даррен Линн Боусман / Darren Lynn Bousman, Адам Гираш / Adam Gierasch, Нил Маршалл / Neil Marshall
В ролях: Эдриенн Барбо, Хантер Смит, Камерон Истон, Кэролин Уильямс, Роберт Раслер, Клэр Крамер, Грег Гранберг, Дэниэл ДиМаджио, Остин Фальк, Мэдисон Исман
Описание: Десять историй, объединенные одной общей темой Хэллоуина, переплетаются вместе в американском пригороде, где упыри, черти, пришельцы и убийцы с топором появляются только в течение одной ночи, чтобы терроризировать ничего не подозревающих жителей.
Сэмпл: http://multi-up.com/1079129
Качество видео: HDRip (исходник не известен)
Формат видео: AVI
Видео: 720x304 (2.37:1), 24 fps, XviD build 73 ~1735 kbps avg, 0.33 bit/pixel
Аудио: 48 kHz, AC3 Dolby Digital, 2/0 (L,R) ch, ~384 kbps
MediaInfo
Format : AVI
Format/Info : Audio Video Interleave
File size : 1.45 GiB
Duration : 1h 37mn
Overall bit rate : 2 129 Kbps
Writing application : VirtualDubMod 1.5.10.3 | www.virtualdub-fr.org || (build 2550/release)
Writing library : VirtualDubMod build 2550/release
Video
ID : 0
Format : MPEG-4 Visual
Format profile : AdvancedSimple@L5
Format settings, BVOP : Yes
Format settings, QPel : No
Format settings, GMC : No warppoints
Format settings, Matrix : Custom
Codec ID : XVID
Codec ID/Hint : XviD
Duration : 1h 37mn
Bit rate : 1 736 Kbps
Width : 720 pixels
Height : 304 pixels
Display aspect ratio : 2.35:1
Frame rate : 24.000 fps
Resolution : 24 bits
Colorimetry : 4:2:0
Scan type : Progressive
Bits/(Pixel*Frame) : 0.330
Stream size : 1.18 GiB (82%)
Writing library : XviD 73
Audio
ID : 1
Format : AC-3
Format/Info : Audio Coding 3
Codec ID : 2000
Duration : 1h 37mn
Bit rate mode : Constant
Bit rate : 384 Kbps
Channel(s) : 2 channels
Channel positions : L R
Sampling rate : 48.0 KHz
Stream size : 267 MiB (18%)
Alignment : Split accross interleaves
Interleave, duration : 42 ms (1.00 video frame)
Interleave, preload duration : 500 ms
Скриншот c названием фильма Скриншоты
Скачать

Скачать торрент!

Как скачивать? · Что такое торрент? · Рейтинг и ограничения

Сайт не распространяет и не хранит электронные версии произведений, а лишь предоставляет доступ к создаваемому пользователями каталогу ссылок на торрент-файлы, которые содержат только списки хеш-сумм

[Профиль] [ЛС]
Показать сообщения:    
Ответить на тему

Текущее время: Сегодня 17:45

Часовой пояс: GMT + 4



Вы не можете начинать темы
Вы не можете отвечать на сообщения
Вы не можете редактировать свои сообщения
Вы не можете удалять свои сообщения
Вы не можете голосовать в опросах
Вы не можете прикреплять файлы к сообщениям
Вы не можете скачивать файлы