Ускорение / Momentum (Стивен С. Кампанелли / Stephen S. Campanelli) [2015, ЮАР, США, боевик, триллер, BDRip-AVC] Dub + Sub (Eng)

Ответить на тему
 
Автор Сообщение

user ®

Стаж: 7 лет 7 месяцев

Сообщений: 20008

Пост Пост: #1 от 12-Дек-2015 07:24

[Цитировать]

Ускорение
Momentum

Страна: ЮАР, США
Жанр: боевик, триллер
Год выпуска: 2015
Продолжительность: 01:36:00
Перевод: Профессиональный (полное дублирование) [Лицензия BD RUS]
Субтитры: английские
Оригинальная аудиодорожка: нет
Режиссер: Стивен С. Кампанелли / Stephen S. Campanelli
В ролях: Ольга Куриленко, Морган Фриман, Джеймс Пьюрфой, Дилан Эди, Дженна Сарас, Ли-Энн Саммерс, Колин Мосс, Эйдан Уайток, Мэриэн Фризелл, Брендан Мюррэй, Лиза Леонард, Эбби Уэйим
Описание:
Алекс, опытная воровка, соглашается совершить свое последнее ограбление... Но все идет не по плану. Теперь ей - красивой, сильной и безжалостной femme fatale - угрожает опасность. И неудачное ограбление - не единственная проблема. Она перешла дорогу секретному международному синдикату, который ищет нечто более ценное, чем бриллианты. С этого момента для Алекс единственный способ спастись - бежать. И как можно быстрее Релиз:
Автор рипа: Stalker oK
Сэмпл
Качество видео: BDRip-AVC [bluebird / Blu-ray Disc / 1080p]
Формат видео: MKV
Видео кодек: AVC
Аудио кодек: AC3
Видео: 1716 Кбит/сек, 1032x432 (2.35:1), 23,976 кадр/сек, AVC
Аудио: русский, 448 Кбит/сек, 48 КГц, 16 бит, 5.1, AC3
Навигация по главам: есть

MediaInfo
Общее
Уникальный идентификатор : 216285112233675854962740454781467573989 (0xA2B6FF56C280555CB0C294FFB8253EE5)
Полное имя : M:\Rips\Momentum\Momentum.2015.BDRip-AVC.Dub.1.45Gb.stalkerok.new-team.mkv
Формат : Matroska
Размер файла : 1,45 Гбайт
Продолжительность : 1 ч. 36 м.
Общий поток : 2165 Кбит/сек
Название фильма : Momentum (2015) (New-Team) (Rip by Stalker oK)
Дата кодирования : UTC 2015-12-11 10:53:00
Программа кодирования : mkvmerge v7.9.0 ('Birds') 64bit
Библиотека кодирования : libebml v1.3.1 + libmatroska v1.4.2
Видео
Идентификатор : 1
Формат : AVC
Формат/Информация : Advanced Video Codec
Профиль формата : High@L4.1
Параметр CABAC формата : Да
Параметр ReFrames формата : 13 кадры
Идентификатор кодека : V_MPEG4/ISO/AVC
Продолжительность : 1 ч. 36 м.
Битрейт : 1716 Кбит/сек
Ширина : 1032 пикс.
Высота : 432 пикс.
Соотношение сторон : 2,35:1
Частота кадров : 23,976 кадр/сек
Цветовое пространство : YUV
Подвыборка цветности : 4:2:0
Битовая глубина : 8 бит
Тип развёртки : Прогрессивная
Бит/(Пиксели*Кадры) : 0.161
Размер потока : 1,12 Гбайт (77%)
Заголовок : Momentum (2015) (New-Team) (Rip by Stalker oK)
Библиотека кодирования : x264 core 148 r2638 7599210
Настройки программы : cabac=1 / ref=13 / deblock=1:-3:-3 / analyse=0x3:0x133 / me=umh / subme=11 / psy=1 / psy_rd=1.00:0.10 / mixed_ref=1 / me_range=48 / chroma_me=1 / trellis=2 / 8x8dct=1 / cqm=0 / deadzone=21,11 / fast_pskip=0 / chroma_qp_offset=-3 / threads=12 / lookahead_threads=3 / sliced_threads=0 / nr=0 / decimate=0 / interlaced=0 / bluray_compat=0 / constrained_intra=0 / bframes=15 / b_pyramid=2 / b_adapt=2 / b_bias=0 / direct=3 / weightb=1 / open_gop=0 / weightp=2 / keyint=240 / keyint_min=23 / scenecut=40 / intra_refresh=0 / rc_lookahead=60 / rc=2pass / mbtree=0 / bitrate=1716 / ratetol=1.0 / qcomp=0.70 / qpmin=0 / qpmax=69 / qpstep=4 / cplxblur=20.0 / qblur=0.5 / vbv_maxrate=50000 / vbv_bufsize=62500 / nal_hrd=none / filler=0 / ip_ratio=1.40 / pb_ratio=1.30 / aq=3:0.90
Аудио
Идентификатор : 2
Формат : AC-3
Формат/Информация : Audio Coding 3
Расширение режима : CM (complete main)
Идентификатор кодека : A_AC3
Продолжительность : 1 ч. 36 м.
Вид битрейта : Постоянный
Битрейт : 448 Кбит/сек
Канал(ы) : 6 канала(ов)
Расположение каналов : Front: L C R, Side: L R, LFE
Частота : 48,0 КГц
Битовая глубина : 16 бит
Метод сжатия : С потерями
Размер потока : 308 Мбайт (21%)
Язык : Russian
Текст
Идентификатор : 3
Формат : UTF-8
Идентификатор кодека : S_TEXT/UTF8
Идентификатор кодека/Информация : UTF-8 Plain Text
Язык : English
Меню
00:00:00.000 : en:Chapter 1
00:11:59.427 : en:Chapter 2
00:23:04.424 : en:Chapter 3
00:33:35.638 : en:Chapter 4
00:43:34.695 : en:Chapter 5
00:54:18.964 : en:Chapter 6
01:02:51.392 : en:Chapter 7
01:14:14.867 : en:Chapter 8
01:28:55.705 : en:Chapter 9
Скриншоты
Скачать

Скачать торрент!

Как скачивать? · Что такое торрент? · Рейтинг и ограничения

Сайт не распространяет и не хранит электронные версии произведений, а лишь предоставляет доступ к создаваемому пользователями каталогу ссылок на торрент-файлы, которые содержат только списки хеш-сумм

[Профиль] [ЛС]
Показать сообщения:    
Ответить на тему

Текущее время: Сегодня 18:26

Часовой пояс: GMT + 4



Вы не можете начинать темы
Вы не можете отвечать на сообщения
Вы не можете редактировать свои сообщения
Вы не можете удалять свои сообщения
Вы не можете голосовать в опросах
Вы не можете прикреплять файлы к сообщениям
Вы не можете скачивать файлы