Арсенал (Александр Довженко) [1928, СССР, драма, немой, оригинальная озвучка, MPEG4 + Original Rus

Ответить на тему
 
Автор Сообщение

user ®

Стаж: 7 лет 7 месяцев

Сообщений: 20008

Пост Пост: #1 от 11-Дек-2015 19:03

[Цитировать]

Арсенал
Страна: СССР
Жанр: драма, немой, оригинальная озвучка
Год выпуска: 1928
Продолжительность: 01:09:09
Перевод: Не требуется
Cубтитры: нет
Оригинальная аудиодорожка: русский
Режиссер: Александр Довженко
В ролях: Семен Свашенко, Георгий Хорьков, Дмитрий Эрдман, Сергей Петров, М. Михайловский, А. Евдаков, Николай Кучинский, Осип Мерлатти, Николай Надемский, Лучиано Альбертини
Описание: Третий полнометражный фильм Александра Довженко и вторая часть его знаменитой украинской трилогии («Звенигора», «Арсенал», «Земля»). Революционная кинопоэма, в основе которой лежит январское восстании 1918 года рабочих киевского оружейного завода «Арсенал» против правительства Центральной Рады Украинской Народной Республики.
«Арсенал» считают одним из виднейших фильмов украинского кино. Среди других работ Довженко эта картина одна из самых богатых на кинематографические находки: провокации зрителя, психологические паузы, работа с непрофессиональными актёрами. Довженко писал: «Я поставил себе две цели: я в «Арсенале» буду громить украинский национализм и шовинизм, с другой стороны, буду поэтом и певцом рабочего класса Украины, совершившего социальную революцию». Идеология здесь соседствует с фольклором – фильм во многом построен по мифологическим законам.
Озвучка: Stian Westerhus
Стиан Вестерхус – авангардный гитарист из Норвегии, по совместительству одна из визитных карточек культового лейбла Rune Grammofon. Известность пришла к Вестерхусу после выхода пластинки Pitch Black Star Spangled: с помощью одной электрогитары и виртуозного обращения с примочками ему удалось создать невероятно вдумчивую, структурированную и в то же время захватывающую музыку. Идентифицировать ее в жанровом смысле крайне трудно: кажется, эта музыка лежит в глубокой пропасти между авангардным джазом и электроакустическим эмбиентом. При этом уже на следующей сольной пластинке заметно больше слышны отголоски академической музыки ХХ века вроде Альфреда Шнитке, нежели джазовое прошлое музыканта.
«Киноозвучка» в «Музеоне»
История кинематографа – живая ткань, которая плетется не только режиссерами и киноведами, но и зрительским участием. Дистанция с прошлым может быть короче, чем нам кажется, и некоторые пыльные, на первый взгляд, экспонаты могут оказаться злободневнее многих сегодняшних высказываний. Понять контекст и специфику выбранных фильмов помогут вступительные лекции, а эмоциональному погружению будет способствовать живое музыкальное сопровождение – не менее разнообразное и созданное специально для наших сеансов. Все из приглашенных музыкантов являются по-своему выдающимися знатоками своего дела, и все же для них участие в проекте – ответственный и увлекательный эксперимент. Надеемся, таким он будет и для вас – волнительным и непредсказуемым.
Куратор Алексей Артамонов о программе «Киноозвучка»
Доп. информация:
Материалы о программе «Киноозвучка»
«Киноозвучка» в «Музеоне» http://www.muzeon.ru/articles/347-kinoozvuchka-2015
Евгений Галочкин, Максим Семенов. Бабушка и габбер http://www.colta.ru/articles/cinema/8013
Глеб Напреенко. От айпада к Пролеткульту и обратно http://kinoart.ru/blogs/ot-ajpada-k-proletkultu-i-obratno
Сэмпл: http://multi-up.com/1069834
Качество видео: MPEG4
Формат видео: MP4
Видео: MPEG-4 at 4396 kbps, 0.191 bit/pixel, 1280x720 at 25,000 fps
Аудио: AAC at 115 kbps, 2 ch, 44,1 kHz
MediaInfo
Формат : MPEG-4
Профиль формата : Base Media / Version 2
Идентификатор кодека : mp42
Размер файла : 2,18 Гбайт
Продолжительность : 1 ч. 9 м.
Общий поток : 4515 Кбит/сек
Название фильма : Untitled Project 1
Дата кодирования : UTC 2015-09-20 03:46:58
Дата пометки : UTC 2015-09-20 04:25:30
Видео
Идентификатор : 2
Формат : AVC
Формат/Информация : Advanced Video Codec
Профиль формата : High@L3.1
Параметр CABAC формата : Да
Параметр ReFrames формата : 2 кадры
Идентификатор кодека : avc1
Идентификатор кодека/Информация : Advanced Video Coding
Продолжительность : 1 ч. 9 м.
Вид битрейта : Переменный
Битрейт : 4396 Кбит/сек
Максимальный битрейт : 768 Кбит/сек
Ширина : 1280 пикс.
Высота : 720 пикс.
Соотношение сторон : 16:9
Режим частоты кадров : Постоянный
Частота кадров : 25,000 кадр/сек
Цветовое пространство : YUV
Подвыборка цветности : 4:2:0
Битовая глубина : 8 бит
Тип развёртки : Прогрессивная
Бит/(Пиксели*Кадры) : 0.191
Размер потока : 2,12 Гбайт (97%)
Заголовок : Core Media Video
Дата кодирования : UTC 2015-09-20 03:46:58
Дата пометки : UTC 2015-09-20 04:25:30
Основные цвета : BT.709-5, BT.1361, IEC 61966-2-4, SMPTE RP177
Характеристики трансфера : BT.709-5, BT.1361
Коэффициенты матрицы : BT.709-5, BT.1361, IEC 61966-2-4 709, SMPTE RP177
Аудио
Идентификатор : 1
Формат : AAC
Формат/Информация : Advanced Audio Codec
Профиль формата : LC
Идентификатор кодека : 40
Продолжительность : 1 ч. 9 м.
Вид битрейта : Постоянный
Битрейт : 115 Кбит/сек
Номинальный битрейт : 128 Кбит/сек
Канал(ы) : 2 канала(ов)
Расположение каналов : Front: L R
Частота : 44,1 КГц
Метод сжатия : С потерями
Размер потока : 56,9 Мбайт (3%)
Заголовок : Core Media Audio
Язык : Russian
Дата кодирования : UTC 2015-09-20 03:46:58
Дата пометки : UTC 2015-09-20 04:25:30
Скриншот c названием фильма Скриншоты
Скачать

Скачать торрент!

Как скачивать? · Что такое торрент? · Рейтинг и ограничения

Сайт не распространяет и не хранит электронные версии произведений, а лишь предоставляет доступ к создаваемому пользователями каталогу ссылок на торрент-файлы, которые содержат только списки хеш-сумм

[Профиль] [ЛС]
Показать сообщения:    
Ответить на тему

Текущее время: Сегодня 08:12

Часовой пояс: GMT + 4



Вы не можете начинать темы
Вы не можете отвечать на сообщения
Вы не можете редактировать свои сообщения
Вы не можете удалять свои сообщения
Вы не можете голосовать в опросах
Вы не можете прикреплять файлы к сообщениям
Вы не можете скачивать файлы