Все сначала (Дарья Полторацкая) [2014, Мелодрама, HDTV 1080i]

Ответить на тему
 
Автор Сообщение

user ®

Стаж: 7 лет 7 месяцев

Сообщений: 20008

Пост Пост: #1 от 11-Дек-2015 19:03

[Цитировать]

Все сначала
Жанр: Мелодрама
Год выпуска: 2014
Продолжительность: ~00:45:00 серия
Режиссёр: Дарья Полторацкая
В ролях: Кирилл Кяро, Наталия Антонова, Георгий Дронов, Владимир Литвинов, Андрей Фролов , Юлия Такшина, Ольга Вяликова, Софья Бедная, Александр Горбатов
Описание: Заключенный Павел Стахов получает врачебное заключение - ему осталось жить не более шести месяцев... Павел предлагает своему бывшего партнёру по бизнесу и другу детства - Геннадию - все свои акции в обмен на помощь в организации побега. Во время виртуозно организованного побега Павел имитирует свою смерть. Единственное его желание - забрать свою дочь Катю из детдома и провести последние дни жизни вместе с ней. Но Павел с горечью узнаёт, что Катю год назад удочерили... Павлу удается наладить отношения с Екатериной, удочерившей Катю. Однако неожиданно вмешивается Геннадий, крадет ребенка. Павлу придется много пережить, чтобы спасти дочь и восстановить справедливость.
Сэмпл: http://multi-up.com/1079079
Качество видео: HDTV 1080i
Формат видео: TS
Видео: AVC, 1920x1080, (16:9), 25 fps, 9 443 Kbps
Аудио: AC3, 48 kHz; 6 ch; 384 kbps
MediaInfo
General
ID : 1 (0x1)
Complete name : C:\Vse slachala\1-2.ts
Format : MPEG-TS
File size : 7.19 GiB
Duration : 1h 37mn
Overall bit rate mode : Variable
Overall bit rate : 10.5 Mbps
Video
ID : 305 (0x131)
Menu ID : 20105 (0x4E89)
Format : AVC
Format/Info : Advanced Video Codec
Format profile : Main@L4
Format settings, CABAC : Yes
Format settings, ReFrames : 4 frames
Codec ID : 27
Duration : 1h 37mn
Bit rate : 9 443 Kbps
Width : 1 920 pixels
Height : 1 080 pixels
Display aspect ratio : 16:9
Frame rate : 25.000 fps
Standard : Component
Color space : YUV
Chroma subsampling : 4:2:0
Bit depth : 8 bits
Scan type : Interlaced
Scan type, store method : Separated fields
Scan order : Top Field First
Bits/(Pixel*Frame) : 0.182
Stream size : 6.44 GiB (90%)
Color range : Limited
Color primaries : BT.709
Transfer characteristics : BT.709
Matrix coefficients : BT.709
Audio #1
ID : 405 (0x195)
Menu ID : 20105 (0x4E89)
Format : MPEG Audio
Format version : Version 1
Format profile : Layer 2
Codec ID : 3
Duration : 1h 37mn
Bit rate mode : Constant
Bit rate : 192 Kbps
Channel(s) : 2 channels
Sampling rate : 48.0 KHz
Compression mode : Lossy
Delay relative to video : -120ms
Stream size : 134 MiB (2%)
Language : Russian
Audio #2
ID : 415 (0x19F)
Menu ID : 20105 (0x4E89)
Format : AC-3
Format/Info : Audio Coding 3
Mode extension : CM (complete main)
Format settings, Endianness : Big
Codec ID : 6
Duration : 1h 37mn
Bit rate mode : Constant
Bit rate : 384 Kbps
Channel(s) : 6 channels
Channel positions : Front: L C R, Side: L R, LFE
Sampling rate : 48.0 KHz
Frame rate : 31.250 fps (1536 spf)
Compression mode : Lossy
Delay relative to video : -120ms
Stream size : 268 MiB (4%)
Language : Russian
Text
ID : 505 (0x1F9)-888
Menu ID : 20105 (0x4E89)
Format : Teletext Subtitle
Language : Russian
Скриншот c названием фильма Скриншоты
Скачать

Скачать торрент!

Как скачивать? · Что такое торрент? · Рейтинг и ограничения

Сайт не распространяет и не хранит электронные версии произведений, а лишь предоставляет доступ к создаваемому пользователями каталогу ссылок на торрент-файлы, которые содержат только списки хеш-сумм

[Профиль] [ЛС]
Показать сообщения:    
Ответить на тему

Текущее время: Сегодня 23:16

Часовой пояс: GMT + 4



Вы не можете начинать темы
Вы не можете отвечать на сообщения
Вы не можете редактировать свои сообщения
Вы не можете удалять свои сообщения
Вы не можете голосовать в опросах
Вы не можете прикреплять файлы к сообщениям
Вы не можете скачивать файлы