Оствинд 2 / Восточный ветер 2 / Ostwind 2 (Катя фон Гарнье / Katja von Garnier) [2015, Германия, семейный, мелодрама, HDRip] MVO (ViruseProject)

Ответить на тему
 
Автор Сообщение

user ®

Стаж: 7 лет 7 месяцев

Сообщений: 20008

Пост Пост: #1 от 10-Дек-2015 12:00

[Цитировать]

Оствинд 2 /Ostwind 2
Год выпуска: 2015
Страна: Германия
Жанр: семейный, мелодрама
Продолжительность: 01:47:56
Перевод: Любительский (многоголосый закадровый) ViruseProject
Субтитры: нет
Режиссёр: Катя фон Гарнье / Katja von Garnier
В ролях: Ханна Бинке, Марвин Линке, Корнелия Фробёсс, Тило Прюкнер, Юрген Фогель, Нина Кронъегер, Детлев Бук, Марла Мен, Амбер Бонгард и др.
Описание: Наступили летние каникулы, и Мика возвращается в Кальтенбах в тревоге за своего вороного друга Оствинда. В поместье бабушки тоже не все гладко: Кальтенбах на грани банкротства, и единственный шанс спасти его от разорения — принять участие в очередном турнире. Также Мике придется выяснить, откуда у Оствинда странные шрамы, узнать, кто такая Тридцать Третья, и пойти на сделку с незнакомцем, утверждающим, что он может помочь девушке выиграть турнир.



скачать СЕМПЛ с multi-up
Качество: HDRip
Формат: AVI
Видео кодек: XviD
Аудио кодек: AC3
Видео: 720x304 (2.37:1), 24.000 fps, XviD build 50 ~1741 kbps avg, 0.33 bit/pixel
Аудио: 48 kHz, AC3 Dolby Digital, 2/0 (L,R) ch, ~192 kbps
MediaInfo
General
Complete name : E:\ОЗВУЧКА\ФИЛЬМЫ\Ostwind 2\Ostwind.2015.HDRip.ViruseProject.avi
Format : AVI
Format/Info : Audio Video Interleave
File size : 1.47 GiB
Duration : 1h 47mn
Overall bit rate : 1 943 Kbps
Writing application : VirtualDubMod 1.5.10.2 (build 2540/release)
Writing library : VirtualDubMod build 2540/release
Video
ID : 0
Format : MPEG-4 Visual
Format profile : Advanced Simple@L5
Format settings, BVOP : 1
Format settings, QPel : No
Format settings, GMC : No warppoints
Format settings, Matrix : Default (MPEG)
Codec ID : XVID
Codec ID/Hint : XviD
Duration : 1h 47mn
Bit rate : 1 742 Kbps
Width : 720 pixels
Height : 304 pixels
Display aspect ratio : 2.35:1
Frame rate : 24.000 fps
Color space : YUV
Chroma subsampling : 4:2:0
Bit depth : 8 bits
Scan type : Progressive
Compression mode : Lossy
Bits/(Pixel*Frame) : 0.332
Stream size : 1.31 GiB (90%)
Writing library : XviD 1.2.1 (UTC 2008-12-04)
Audio
ID : 1
Format : AC-3
Format/Info : Audio Coding 3
Mode extension : CM (complete main)
Format settings, Endianness : Big
Codec ID : 2000
Duration : 1h 47mn
Bit rate mode : Constant
Bit rate : 192 Kbps
Channel(s) : 2 channels
Channel positions : Front: L R
Sampling rate : 48.0 KHz
Compression mode : Lossy
Stream size : 148 MiB (10%)
Alignment : Split accross interleaves
Interleave, duration : 42 ms (1.00 video frame)
Interleave, preload duratio : 500 ms
Скриншоты
Скачать

Скачать торрент!

Как скачивать? · Что такое торрент? · Рейтинг и ограничения

Сайт не распространяет и не хранит электронные версии произведений, а лишь предоставляет доступ к создаваемому пользователями каталогу ссылок на торрент-файлы, которые содержат только списки хеш-сумм

[Профиль] [ЛС]
Показать сообщения:    
Ответить на тему

Текущее время: Сегодня 07:58

Часовой пояс: GMT + 4



Вы не можете начинать темы
Вы не можете отвечать на сообщения
Вы не можете редактировать свои сообщения
Вы не можете удалять свои сообщения
Вы не можете голосовать в опросах
Вы не можете прикреплять файлы к сообщениям
Вы не можете скачивать файлы