Битва за Севастополь (Василий Беляев) [1944, Документальный, военный, DVDRip-AVC] + Sub Eng

Ответить на тему
 
Автор Сообщение

user ®

Стаж: 7 лет 10 месяцев

Сообщений: 20008

Пост Пост: #1 от 09-Дек-2015 02:03

[Цитировать]

Битва за Севастополь
Жанр: Документальный, военный
Страна: СССР
Студия: Центральная Ордена Красного Знамени студия документальных фильмов (ЦСДФ)
Год выпуска: 1944
Продолжительность: 00:42:57
Режиссёр: Василий Беляев
Описание: Документальный фильм о героическом освобождении Красной Армией от немецко-фашистских захватчиков Крыма и Севастополя в 1944 году. Масштабные съёмки производили 19 советских кинооператоров, под руководством режиссёра и оператора, лауреата Сталинской премии В.Н.Беляева. Показаны документальные кадры военных действий с места боёв на море, в воздухе и на суше. Враг был разбит, но Победа далась нелегко…
Дополнительная информация: Релиз:
Автор рипа: pmv
Исходник DVD5 от IHF найден в сети – спасибо KimJongNumberUn
Операторы: Владислав Микоша, Д.Шоломович и другие военные операторы (всего 19 человек).
Автор текста: В.Кожевников
Текст читает: Юрий Левитан
Вторая аудиодорожка - английская.
Представлены также английские субтитры (отключаемые) и английские субтитры (hardsub) только на текстовые русские титры.
Дополнительным файлом в папке содержится немецкая документальная хроника тех лет о боевых действиях в Крыму.

ПРОСЬБА к СКАЧАВШИМ. НЕ УХОДИТЕ С РАЗДАЧИ, ПОМОГИТЕ ДРУГИМ СКАЧАТЬ!!!
ВНИМАНИЕ!!! РИП ФОРМАТА mkv (кодек H.264) ВОСПРОИЗВОДИТСЯ НЕ НА ВСЕХ БЫТОВЫХ ВИДЕОПЛЕЕРАХ!!!
Качество видео: DVDRip
Формат видео: MKV
Видео: AVC (H264), 640x480 (1.33:1), 23.976fps, 1500 Kbps, 0.204 Bits/Pixel
Аудио #1: AC3, 48 КHz, stereo (2 ch), 192 Kbps – русский
Аудио #2: AC3, 48 КHz, stereo (2 ch), 192 Kbps – английский
Сэмпл MediaInfo
General
Unique ID : 222385987515658299042857889767047249805 (0xA74DFBB6B89C326D9A7F9B246A933F8D)
Complete name : G:\torrents\Битва за Севастополь (1944, rus+eng+eng_sub).mkv
Format : Matroska
Format version : Version 4 / Version 2
File size : 579 MiB
Duration : 42mn 56s
Overall bit rate : 1 887 Kbps
Encoded date : UTC 2015-12-08 10:45:11
Writing application : mkvmerge v8.6.1 ('Flying') 64bit
Writing library : libebml v1.3.3 + libmatroska v1.4.4
DURATION : 00:41:29.544000000
NUMBER_OF_FRAMES : 207
NUMBER_OF_BYTES : 8528
_STATISTICS_WRITING_APP : mkvmerge v8.6.1 ('Flying') 64bit
_STATISTICS_WRITING_DATE_UTC : 2015-12-08 10:45:11
_STATISTICS_TAGS : BPS DURATION NUMBER_OF_FRAMES NUMBER_OF_BYTES
Video
ID : 1
Format : AVC
Format/Info : Advanced Video Codec
Format profile : High@L4.1
Format settings, CABAC : Yes
Format settings, ReFrames : 16 frames
Codec ID : V_MPEG4/ISO/AVC
Duration : 42mn 56s
Bit rate : 1 500 Kbps
Width : 640 pixels
Height : 480 pixels
Display aspect ratio : 4:3
Frame rate mode : Constant
Frame rate : 23.976 fps
Color space : YUV
Chroma subsampling : 4:2:0
Bit depth : 8 bits
Scan type : Progressive
Bits/(Pixel*Frame) : 0.204
Stream size : 450 MiB (78%)
Writing library : x264 core 146 r2538 121396c
Encoding settings : cabac=1 / ref=16 / deblock=1:0:0 / analyse=0x3:0x133 / me=umh / subme=10 / psy=1 / psy_rd=1.00:0.00 / mixed_ref=1 / me_range=24 / chroma_me=1 / trellis=2 / 8x8dct=1 / cqm=0 / deadzone=21,11 / fast_pskip=1 / chroma_qp_offset=-2 / threads=30 / lookahead_threads=3 / sliced_threads=0 / nr=0 / decimate=1 / interlaced=0 / bluray_compat=0 / constrained_intra=0 / bframes=8 / b_pyramid=2 / b_adapt=2 / b_bias=0 / direct=3 / weightb=1 / open_gop=0 / weightp=2 / keyint=250 / keyint_min=23 / scenecut=40 / intra_refresh=0 / rc_lookahead=60 / rc=2pass / mbtree=1 / bitrate=1500 / ratetol=1.0 / qcomp=0.60 / qpmin=0 / qpmax=69 / qpstep=4 / cplxblur=20.0 / qblur=0.5 / ip_ratio=1.40 / aq=1:1.00
Language : Russian
Default : Yes
Forced : No
Audio #1
ID : 2
Format : AC-3
Format/Info : Audio Coding 3
Mode extension : CM (complete main)
Format settings, Endianness : Big
Codec ID : A_AC3
Duration : 42mn 56s
Bit rate mode : Constant
Bit rate : 192 Kbps
Channel(s) : 2 channels
Channel positions : Front: L R
Sampling rate : 48.0 KHz
Bit depth : 16 bits
Compression mode : Lossy
Stream size : 59.0 MiB (10%)
Language : Russian
Default : Yes
Forced : No
Audio #2
ID : 3
Format : AC-3
Format/Info : Audio Coding 3
Mode extension : CM (complete main)
Format settings, Endianness : Big
Codec ID : A_AC3
Duration : 42mn 56s
Bit rate mode : Constant
Bit rate : 192 Kbps
Channel(s) : 2 channels
Channel positions : Front: L R
Sampling rate : 48.0 KHz
Bit depth : 16 bits
Compression mode : Lossy
Stream size : 59.0 MiB (10%)
Language : English
Default : No
Forced : No
Text
ID : 4
Format : UTF-8
Codec ID : S_TEXT/UTF8
Codec ID/Info : UTF-8 Plain Text
Language : English
Default : Yes
Forced : No
Скриншот c названием фильма Скриншоты МОИ РАЗДАЧИ НА РУТРЕКЕРЕ: [url=http://***/forum/tracker.php?rid=27390064]http://***/forum/tracker.php?rid=27390064[/url]
Скачать

Скачать торрент!

Как скачивать? · Что такое торрент? · Рейтинг и ограничения

Сайт не распространяет и не хранит электронные версии произведений, а лишь предоставляет доступ к создаваемому пользователями каталогу ссылок на торрент-файлы, которые содержат только списки хеш-сумм

[Профиль] [ЛС]
Показать сообщения:    
Ответить на тему

Текущее время: Сегодня 09:27

Часовой пояс: GMT + 4



Вы не можете начинать темы
Вы не можете отвечать на сообщения
Вы не можете редактировать свои сообщения
Вы не можете удалять свои сообщения
Вы не можете голосовать в опросах
Вы не можете прикреплять файлы к сообщениям
Вы не можете скачивать файлы