Тюремный эксперимент в Стэнфорде / The Stanford Prison Experiment (Кайл Патрик Альварез / Kyle Patrick Alvarez) [2015, США, триллер, драма, BDRip-AVC] MVO + Sub (Eng)

Ответить на тему
 
Автор Сообщение

user ®

Стаж: 7 лет 7 месяцев

Сообщений: 20008

Пост Пост: #1 от 09-Дек-2015 02:03

[Цитировать]

Тюремный эксперимент в Стэнфорде
The Stanford Prison Experiment
«They were given 2 weeks. It lasted 6 days»

Страна: США
Жанр: триллер, драма
Год выпуска: 2015
Продолжительность: 02:01:53
Перевод: Любительский (многоголосый, закадровый) [Paradox & Omskbird records]
Субтитры: английские, английские (SDH)
Оригинальная аудиодорожка: нет
Режиссер: Кайл Патрик Альварез / Kyle Patrick Alvarez
В ролях: Билли Крудап, Майкл Ангарано, Мойзес Ариас, Николас Браун, Гай Чарльз, Кейр Гилкрист, Ки Хонг Ли, Томас Манн, Эзра Миллер, Логан Миллер, Тай Шеридан, Джонни Симмонс
Описание:
В основу фильма положен эксперимент американского психолога. Он выбрал добровольцев, которые сыграли роль надзирателей и заключенных, и устроил им в одном корпусе настоящую тюрьму. Люди быстро освоились и, к огромному удивлению психолога, стали вести себя непредсказуемо. К чему приведет вышедший из-под контроля эксперимент? Релиз:
Автор рипа: Stalker oK
Сэмпл
Качество видео: BDRip-AVC [HDSky / Blu-ray Remux / 1080p]
Формат видео: MKV
Видео кодек: AVC
Аудио кодек: AC3
Видео: 1513 Кбит/сек, 912x380 (2.40:1), 23,976 кадр/сек, AVC
Аудио: русский, 192 Кбит/сек, 48 КГц, 16 бит, 2.0, AC3
Навигация по главам: есть

Перевод/Озвучка
Роли озвучивали: Павел Ярощик, Алексей Гнеушев и Ольга Федорова
Перевод фильма: Иван Захаров
Звукорежиссер: Павел Квентов
MediaInfo
General
Unique ID : 183106440552429163894357698726760379690 (0x89C1048722C2E727B257B8352541752A)
Complete name : M:\Rips\The Stanford Prison Experiment\The.Stanford.Prison.Experiment.2015.BDRip-AVC.MVO.1.45Gb.stalkerok.new-team.mkv
Format : Matroska
File size : 1.45 GiB
Duration : 2h 1mn
Overall bit rate : 1 703 Kbps
Movie name : The Stanford Prison Experiment (2015) (New-Team) (Rip by Stalker oK)
Encoded date : UTC 2015-12-08 16:31:08
Writing application : mkvmerge v7.9.0 ('Birds') 64bit
Writing library : libebml v1.3.1 + libmatroska v1.4.2
Video
ID : 1
Format : AVC
Format/Info : Advanced Video Codec
Format profile : High@L4.1
Format settings, CABAC : Yes
Format settings, ReFrames : 13 frames
Codec ID : V_MPEG4/ISO/AVC
Duration : 2h 1mn
Bit rate : 1 513 Kbps
Width : 912 pixels
Height : 380 pixels
Display aspect ratio : 2.40:1
Frame rate : 23.976 fps
Color space : YUV
Chroma subsampling : 4:2:0
Bit depth : 8 bits
Scan type : Progressive
Bits/(Pixel*Frame) : 0.182
Stream size : 1.26 GiB (87%)
Title : The Stanford Prison Experiment (2015) (New-Team) (Rip by Stalker oK)
Writing library : x264 core 148 r2638 7599210
Encoding settings : cabac=1 / ref=13 / deblock=1:-3:-3 / analyse=0x3:0x133 / me=umh / subme=11 / psy=1 / psy_rd=1.00:0.10 / mixed_ref=1 / me_range=48 / chroma_me=1 / trellis=2 / 8x8dct=1 / cqm=0 / deadzone=21,11 / fast_pskip=0 / chroma_qp_offset=-3 / threads=12 / lookahead_threads=2 / sliced_threads=0 / nr=0 / decimate=0 / interlaced=0 / bluray_compat=0 / constrained_intra=0 / bframes=15 / b_pyramid=2 / b_adapt=2 / b_bias=0 / direct=3 / weightb=1 / open_gop=0 / weightp=2 / keyint=240 / keyint_min=23 / scenecut=40 / intra_refresh=0 / rc_lookahead=60 / rc=2pass / mbtree=0 / bitrate=1513 / ratetol=1.0 / qcomp=0.70 / qpmin=0 / qpmax=69 / qpstep=4 / cplxblur=20.0 / qblur=0.5 / vbv_maxrate=50000 / vbv_bufsize=62500 / nal_hrd=none / filler=0 / ip_ratio=1.40 / pb_ratio=1.30 / aq=3:0.90
Audio
ID : 4
Format : AC-3
Format/Info : Audio Coding 3
Mode extension : CM (complete main)
Codec ID : A_AC3
Duration : 2h 1mn
Bit rate mode : Constant
Bit rate : 192 Kbps
Channel(s) : 2 channels
Channel positions : Front: L R
Sampling rate : 48.0 KHz
Bit depth : 16 bits
Compression mode : Lossy
Stream size : 167 MiB (11%)
Language : Russian
Text #1
ID : 2
Format : UTF-8
Codec ID : S_TEXT/UTF8
Codec ID/Info : UTF-8 Plain Text
Language : English
Text #2
ID : 3
Format : UTF-8
Codec ID : S_TEXT/UTF8
Codec ID/Info : UTF-8 Plain Text
Title : SDH
Language : English
Menu
00:00:00.000 : en:Chapter 1
00:11:55.088 : en:Chapter 2
00:22:32.392 : en:Chapter 3
00:32:06.507 : en:Chapter 4
00:42:58.199 : en:Chapter 5
00:55:41.338 : en:Chapter 6
01:05:28.882 : en:Chapter 7
01:15:33.612 : en:Chapter 8
01:28:52.033 : en:Chapter 9
01:38:35.868 : en:Chapter 10
01:50:30.332 : en:Chapter 11
01:57:44.765 : en:Chapter 12
Скриншоты
Скачать

Скачать торрент!

Как скачивать? · Что такое торрент? · Рейтинг и ограничения

Сайт не распространяет и не хранит электронные версии произведений, а лишь предоставляет доступ к создаваемому пользователями каталогу ссылок на торрент-файлы, которые содержат только списки хеш-сумм

[Профиль] [ЛС]
Показать сообщения:    
Ответить на тему

Текущее время: Сегодня 00:02

Часовой пояс: GMT + 4



Вы не можете начинать темы
Вы не можете отвечать на сообщения
Вы не можете редактировать свои сообщения
Вы не можете удалять свои сообщения
Вы не можете голосовать в опросах
Вы не можете прикреплять файлы к сообщениям
Вы не можете скачивать файлы