Окулус / Oculus (Майк Флэнеган / Mike Flanagan) [2013, США, ужасы, триллер, BDRip 1080p] Dub + Original Eng + Sub (Rus, Eng, Eng SDH, Eng SDH Colored)

Ответить на тему
 
Автор Сообщение

user ®

Стаж: 7 лет 7 месяцев

Сообщений: 20008

Пост Пост: #1 от 08-Дек-2015 22:57

[Цитировать]

Окулус / Oculus
Страна: США
Жанр: ужасы, триллер
Год выпуска: 2013
Продолжительность: 01:44:03
Перевод: Профессиональный (дублированный)
Cубтитры: русские, английские (colored SDH, SDH, простые)
Оригинальная аудиодорожка: английский
Режиссер: Майк Флэнеган / Mike Flanagan
В ролях: Карен Гиллан, Брентон Туэйтс, Кэти Сакхофф, Рори Кокрейн, Анналиса Бассо, Гаррет Райан, Джеймс Лэфферти, Мигель Сандовал, Кейт Сигел, Скотт Грэхэм
Описание: Смерть родителей сильно повлияла на судьбу двух осиротевших детей. По прошествии времени, в двадцатилетнем возрасте, сестра все еще продолжает так считать и хочет доказать брату, что зеркало стало причиной гибели близких людей и всех случившихся последующих бед…
Доп. информация: За основу взят релиз Oculus.2013.1080p.BluRay.x264-SPARKS.
Сэмпл: http://www.mediafire.com/watch/mtz7o7aoap9hsf5/Ocul...PARKS.sample.mkv
Тип релиза: BDRip 1080p
Контейнер: MKV
Видео: MPEG4 Video (H264) 1920x800 23.976fps 9014 Kbps [V: English [eng] (h264 high L4.1, yuv420p, 1920x800)
Аудио: Dolby AC3 48000Hz 6ch 448kbps [A: Russian [rus] (ac3, 48000 Hz, 5.1, 448 kb/s)]
Аудио 2: DTS 48000Hz 6ch 1536kbps [A: English [eng] (dts, 48000 Hz, 5.1, 1536 kb/s)]
Формат субтитров: softsub (SRT)
MediaInfo
General
Unique ID                      : 203657414716911979005445917783843016410 (0x9936FDC874F53E7BB433C83792D20EDA)
Complete name                  : E:\Video\Oculus.2013.1080p.BluRay.x264-SPARKS\Oculus.2013.1080p.BluRay.x264-SPARKS.mkv
Format                         : Matroska
Format version                 : Version 4 / Version 2
File size                      : 7.97 GiB
Duration                       : 1h 44mn
Overall bit rate               : 11.0 Mbps
Encoded date                   : UTC 2015-12-06 13:52:25
Writing application            : mkvmerge v8.3.0 ('Over the Horizon') 64bit
Writing library                : libebml v1.3.1 + libmatroska v1.4.2
DURATION                       : 01:44:02.880000000
NUMBER_OF_FRAMES               : 195090
NUMBER_OF_BYTES                : 349601280
_STATISTICS_WRITING_APP        : mkvmerge v8.3.0 ('Over the Horizon') 64bit
_STATISTICS_WRITING_DATE_UTC   : 2015-12-06 13:52:25
_STATISTICS_TAGS               : BPS DURATION NUMBER_OF_FRAMES NUMBER_OF_BYTES
Video
ID                             : 1
Format                         : AVC
Format/Info                    : Advanced Video Codec
Format profile                 : High@L4.1
Format settings, CABAC         : Yes
Format settings, ReFrames      : 5 frames
Codec ID                       : V_MPEG4/ISO/AVC
Duration                       : 1h 44mn
Bit rate                       : 9 014 Kbps
Width                          : 1 920 pixels
Height                         : 800 pixels
Display aspect ratio           : 2.40:1
Frame rate mode                : Constant
Frame rate                     : 23.976 fps
Color space                    : YUV
Chroma subsampling             : 4:2:0
Bit depth                      : 8 bits
Scan type                      : Progressive
Bits/(Pixel*Frame)             : 0.245
Stream size                    : 6.39 GiB (80%)
Writing library                : x264 core 142 r2431 ac76440
Encoding settings              : cabac=1 / ref=5 / deblock=1:0:0 / analyse=0x3:0x133 / me=umh / subme=7 / psy=1 / psy_rd=1.00:0.00 / mixed_ref=1 / me_range=16 / chroma_me=1 / trellis=1 / 8x8dct=1 / cqm=0 / deadzone=21,11 / fast_pskip=0 / chroma_qp_offset=-2 / threads=18 / lookahead_threads=3 / sliced_threads=0 / nr=0 / decimate=1 / interlaced=0 / bluray_compat=0 / constrained_intra=0 / bframes=3 / b_pyramid=2 / b_adapt=1 / b_bias=0 / direct=1 / weightb=1 / open_gop=0 / weightp=2 / keyint=250 / keyint_min=23 / scenecut=40 / intra_refresh=0 / rc_lookahead=40 / rc=2pass / mbtree=1 / bitrate=9014 / ratetol=1.0 / qcomp=0.60 / qpmin=0 / qpmax=69 / qpstep=4 / cplxblur=20.0 / qblur=0.5 / ip_ratio=1.40 / aq=1:1.00
Language                       : English
Default                        : Yes
Forced                         : No
DURATION                       : 01:44:03.164000000
NUMBER_OF_FRAMES               : 149686
NUMBER_OF_BYTES                : 7028109002
_STATISTICS_WRITING_APP        : mkvmerge v8.3.0 ('Over the Horizon') 64bit
_STATISTICS_WRITING_DATE_UTC   : 2015-12-06 13:52:25
_STATISTICS_TAGS               : BPS DURATION NUMBER_OF_FRAMES NUMBER_OF_BYTES
Audio #1
ID                             : 2
Format                         : AC-3
Format/Info                    : Audio Coding 3
Mode extension                 : CM (complete main)
Format settings, Endianness    : Big
Codec ID                       : A_AC3
Duration                       : 1h 44mn
Bit rate mode                  : Constant
Bit rate                       : 448 Kbps
Channel(s)                     : 6 channels
Channel positions              : Front: L C R, Side: L R, LFE
Sampling rate                  : 48.0 KHz
Bit depth                      : 16 bits
Compression mode               : Lossy
Stream size                    : 333 MiB (4%)
Title                          : Russian
Language                       : Russian
Default                        : Yes
Forced                         : No
Audio #2
ID                             : 3
Format                         : DTS
Format/Info                    : Digital Theater Systems
Mode                           : 16
Format settings, Endianness    : Big
Codec ID                       : A_DTS
Duration                       : 1h 44mn
Bit rate mode                  : Constant
Bit rate                       : 1 509 Kbps
Channel(s)                     : 6 channels
Channel positions              : Front: L C R, Side: L R, LFE
Sampling rate                  : 48.0 KHz
Bit depth                      : 24 bits
Compression mode               : Lossy
Stream size                    : 1.10 GiB (14%)
Title                          : English
Language                       : English
Default                        : No
Forced                         : No
Text #1
ID                             : 4
Format                         : UTF-8
Codec ID                       : S_TEXT/UTF8
Codec ID/Info                  : UTF-8 Plain Text
Title                          : Eng sub (SDH colored)
Language                       : English
Default                        : No
Forced                         : No
Text #2
ID                             : 5
Format                         : UTF-8
Codec ID                       : S_TEXT/UTF8
Codec ID/Info                  : UTF-8 Plain Text
Title                          : Eng sub (SDH)
Language                       : English
Default                        : No
Forced                         : No
Text #3
ID                             : 6
Format                         : UTF-8
Codec ID                       : S_TEXT/UTF8
Codec ID/Info                  : UTF-8 Plain Text
Title                          : Eng sub
Language                       : English
Default                        : No
Forced                         : No
Text #4
ID                             : 7
Format                         : UTF-8
Codec ID                       : S_TEXT/UTF8
Codec ID/Info                  : UTF-8 Plain Text
Title                          : Rus sub
Language                       : Russian
Default                        : No
Forced                         : No
Menu
00:00:00.000                   : en:00:00:00.000
00:03:10.690                   : en:00:03:10.690
00:07:26.571                   : en:00:07:26.571
00:12:32.752                   : en:00:12:32.752
00:14:41.881                   : en:00:14:41.881
00:19:54.318                   : en:00:19:54.318
00:24:35.057                   : en:00:24:35.057
00:30:56.396                   : en:00:30:56.396
00:34:01.414                   : en:00:34:01.414
00:39:20.149                   : en:00:39:20.149
00:42:50.109                   : en:00:42:50.109
00:46:09.934                   : en:00:46:09.934
00:51:21.412                   : en:00:51:21.412
00:54:53.582                   : en:00:54:53.582
00:57:14.389                   : en:00:57:14.389
01:01:54.252                   : en:01:01:54.252
01:08:05.540                   : en:01:08:05.540
01:11:46.594                   : en:01:11:46.594
01:14:19.497                   : en:01:14:19.497
01:19:14.750                   : en:01:19:14.750
01:23:16.700                   : en:01:23:16.700
01:28:45.237                   : en:01:28:45.237
01:34:24.617                   : en:01:34:24.617
01:37:17.999                   : en:01:37:17.999
Скриншоты
Скачать

Скачать торрент!

Как скачивать? · Что такое торрент? · Рейтинг и ограничения

Сайт не распространяет и не хранит электронные версии произведений, а лишь предоставляет доступ к создаваемому пользователями каталогу ссылок на торрент-файлы, которые содержат только списки хеш-сумм

[Профиль] [ЛС]
Показать сообщения:    
Ответить на тему

Текущее время: Сегодня 13:40

Часовой пояс: GMT + 4



Вы не можете начинать темы
Вы не можете отвечать на сообщения
Вы не можете редактировать свои сообщения
Вы не можете удалять свои сообщения
Вы не можете голосовать в опросах
Вы не можете прикреплять файлы к сообщениям
Вы не можете скачивать файлы