Приманки 2: Второе обольщение / Decoys 2: Alien Seduction (Джеффри Скотт Ландо / Jeffery Scott Lando) [2007, Канада, ужасы, фантастика, триллер, комедия, WEB-DL 1080p] MVO (1 канал) + DVO + Sub Eng + Original Eng

Ответить на тему
 
Автор Сообщение

user ®

Стаж: 7 лет 7 месяцев

Сообщений: 20008

Пост Пост: #1 от 08-Дек-2015 22:57

[Цитировать]

Приманки 2: Второе обольщение / Decoys 2: Alien Seduction
Страна: Канада
Студия: Alian Girls Films, Decoys Production
Жанр: ужасы, фантастика, триллер, комедия
Год выпуска: 2007
Продолжительность: 01:34:01
Перевод 1: Профессиональный (многоголосый закадровый) 1 канал
Перевод 2: Профессиональный (двухголосый закадровый)
Cубтитры: английские
Оригинальная аудиодорожка: английский
Режиссер: Джеффри Скотт Ландо / Jeffery Scott Lando
В ролях: Кори Севьер, Тайлер Джонстон, Kailin See, Ким Пурье, Дина Мейер, Тобин Белл, Reamonn Joshee, Райан Эш, Брэд Годдар, Мишель Молино и др.
Описание: Сэм, студент колледжа в маленьком городе Нордвест, неохотно присоединяется к спору его соседей по комнате: кто сможет стать мужем самой великолепной студентки к концу семестра. Но когда его друзья начинают поочерёдно исчезать, он понимает, что всё дело именно в красавицах…
II Сэмпл II IMDB II
Тип релиза: WEB-DL 1080p
Контейнер: MKV
Видео: AVC / 1920x1080 / 16:9 / 23.976fps / Bit rate 4927Kbps
Аудио 1: AC3 / 48.0 KHz / 6ch. / 448kbps / rus / MVO / 1 канал
Аудио 2: AC3 / 48.0 KHz / 6ch. / 448kbps / rus / MVO
Аудио 3: AC3 / 48.0 KHz / 6ch. / 448kbps / eng / DVD
Аудио 4: AAC-LC / 48.0 KHz / 2ch. / 127kbps / eng / WEB-DL
Формат субтитров: softsub (SRT)
MediaInfo
Общее
Уникальный идентификатор : 176948981550478384317769609681288243676 (0x851F225C38B71A489CA16E6DF9B729DC)
Полное имя : G:\!!!_torrent\Decoys.2.Alien.Seduction.2007.WEB-DL.1080p_by_vedigo.mkv
Формат : Matroska
Версия формата : Version 4 / Version 2
Размер файла : 4,20 Гбайт
Продолжительность : 1 ч. 34 м.
Общий поток : 6401 Кбит/сек
Название фильма : Decoys.2.Alien.Seduction.2007.WEB-DL.1080p_by_vedigo
Дата кодирования : UTC 2015-12-08 03:13:24
Программа кодирования : mkvmerge v8.6.1 ('Flying') 64bit
Библиотека кодирования : libebml v1.3.3 + libmatroska v1.4.4
Видео
Идентификатор : 1
Формат : AVC
Формат/Информация : Advanced Video Codec
Профиль формата : High@L4
Параметр CABAC формата : Да
Параметр ReFrames формата : 4 кадра
Идентификатор кодека : V_MPEG4/ISO/AVC
Продолжительность : 1 ч. 34 м.
Битрейт : 4927 Кбит/сек
Ширина : 1920 пикселей
Высота : 1080 пикселей
Соотношение сторон : 16:9
Режим частоты кадров : Постоянный
Частота кадров : 23,976 кадра/сек
Цветовое пространство : YUV
Субдискретизация насыщенности : 4:2:0
Битовая глубина : 8 бит
Тип развёртки : Прогрессивная
Бит/(Пиксели*Кадры) : 0.099
Размер потока : 3,24 Гбайт (77%)
Заголовок : Decoys.2.Alien.Seduction.2007.WEB-DL.1080p_by_vedigo
Default : Да
Forced : Нет
Цветовой диапазон : Limited
Основные цвета : BT.709
Характеристики трансфера : BT.709
Коэффициенты матрицы : BT.709
Аудио #1
Идентификатор : 2
Формат : AC-3
Формат/Информация : Audio Coding 3
Расширение режима : CM (complete main)
Параметр Endianness формата : Big
Идентификатор кодека : A_AC3
Продолжительность : 1 ч. 34 м.
Вид битрейта : Постоянный
Битрейт : 448 Кбит/сек
Каналы : 6 каналов
Расположение каналов : Front: L C R, Side: L R, LFE
Частота : 48,0 КГц
Частота кадров : 31,250 кадров/сек (1536 spf)
Метод сжатия : С потерями
Размер потока : 301 Мбайт (7%)
Заголовок : MVO @ 1 канал
Язык : Russian
Default : Да
Forced : Нет
Аудио #2
Идентификатор : 3
Формат : AC-3
Формат/Информация : Audio Coding 3
Расширение режима : CM (complete main)
Параметр Endianness формата : Big
Идентификатор кодека : A_AC3
Продолжительность : 1 ч. 34 м.
Вид битрейта : Постоянный
Битрейт : 448 Кбит/сек
Каналы : 6 каналов
Расположение каналов : Front: L C R, Side: L R, LFE
Частота : 48,0 КГц
Частота кадров : 31,250 кадров/сек (1536 spf)
Метод сжатия : С потерями
Размер потока : 301 Мбайт (7%)
Заголовок : DVO
Язык : Russian
Default : Нет
Forced : Нет
Аудио #3
Идентификатор : 4
Формат : AC-3
Формат/Информация : Audio Coding 3
Расширение режима : CM (complete main)
Параметр Endianness формата : Big
Идентификатор кодека : A_AC3
Продолжительность : 1 ч. 34 м.
Вид битрейта : Постоянный
Битрейт : 448 Кбит/сек
Каналы : 6 каналов
Расположение каналов : Front: L C R, Side: L R, LFE
Частота : 48,0 КГц
Частота кадров : 31,250 кадров/сек (1536 spf)
Метод сжатия : С потерями
Размер потока : 301 Мбайт (7%)
Заголовок : original @ DVD
Язык : English
Default : Нет
Forced : Нет
Аудио #4
Идентификатор : 5
Формат : AAC
Формат/Информация : Advanced Audio Codec
Профиль формата : LC
Идентификатор кодека : A_AAC
Продолжительность : 1 ч. 34 м.
Битрейт : 127 Кбит/сек
Каналы : 2 канала
Расположение каналов : Front: L R
Частота : 48,0 КГц
Частота кадров : 46,875 кадров/сек (1024 spf)
Метод сжатия : С потерями
Размер потока : 85,5 Мбайт (2%)
Заголовок : original @ WEB-DL
Язык : English
Default : Нет
Forced : Нет
Текст
Идентификатор : 6
Формат : UTF-8
Идентификатор кодека : S_TEXT/UTF8
Идентификатор кодека/Информация : UTF-8 Plain Text
Продолжительность : 1 ч. 30 м.
Битрейт : 58 бит/сек
Count of elements : 1340
Размер потока : 38,6 Кбайт (0%)
Заголовок : eng
Язык : English
Default : Нет
Forced : Нет
Меню
00:00:00.000 : en:Species Science
00:07:28.000 : en:Dating Curve
00:15:17.000 : en:Game On
00:24:38.000 : en:Spreading Rumors
00:32:11.000 : en:Icy Intentions
00:38:44.000 : en:Cold Hard Evidence
00:45:44.000 : en:Heating Things Up
00:50:20.000 : en:Alien Analysis
00:58:11.000 : en:Decoy Quest
01:05:45.000 : en:Belly Dancing
01:12:25.000 : en:Woman's Intuition
01:23:08.000 : en:Medical Intrusion
Скриншоты
Скачать

Скачать торрент!

Как скачивать? · Что такое торрент? · Рейтинг и ограничения

Сайт не распространяет и не хранит электронные версии произведений, а лишь предоставляет доступ к создаваемому пользователями каталогу ссылок на торрент-файлы, которые содержат только списки хеш-сумм

[Профиль] [ЛС]
Показать сообщения:    
Ответить на тему

Текущее время: Сегодня 08:23

Часовой пояс: GMT + 4



Вы не можете начинать темы
Вы не можете отвечать на сообщения
Вы не можете редактировать свои сообщения
Вы не можете удалять свои сообщения
Вы не можете голосовать в опросах
Вы не можете прикреплять файлы к сообщениям
Вы не можете скачивать файлы