Подражатель / The Wannabe (Ник Сэндоу / Nick Sandow) [2015, США, триллер, драма, криминал, детектив, WEB-DL] DVO

Ответить на тему
 
Автор Сообщение

user ®

Стаж: 7 лет 7 месяцев

Сообщений: 20008

Пост Пост: #1 от 08-Дек-2015 22:57

[Цитировать]

Подражатель / The Wannabe
Страна: США
Жанр: триллер, драма, криминал, детектив
Год выпуска: 2015
Продолжительность: 01:29:56-Перевод: Любительский (двухголосный закадровый)
Cубтитры: нет
Оригинальная аудиодорожка: нет-Режиссер: Ник Сэндоу / Nick Sandow-В ролях: Патриция Аркетт, Дэвид Зайас, Майкл Империоли, Винсент Пьяцца, Доменик Ломбардоззи, Ник Сэндоу, Майк Старр, Даг Э. Даг, Ларри Юден, Слэйн-Описание: Действие фильма происходит в 1992 году в Нью-Йорке. Мелкий жулик Томас Греко — истинный фанат мафии и классических гангстерских фильмов. Он пытается найти способ, благодаря которому один из его героев, босс мафии Джон Готти, судимый за многочисленные преступления в федеральном суде, может быть оправдан. В эпоху, когда большинство членов банд носят спортивные костюмы, Томас старается выглядеть как парни из старых фильмов. Чем, вероятно, и привлекает внимание Роуз, пожилой женщины, в которой находит единомышленницу.-Сэмпл: http://sendfile.su/1181070-Качество видео: WEB-DL
Формат видео: AVI
Видео: 704x288 (2.44:1), 23.976 fps, XviD build 50 ~2077 kbps avg, 0.43 bit/pixel
Аудио: 48 kHz, AC3 Dolby Digital, 2/0 (L,R) ch, ~192 kbps



MediaInfo
Формат : AVI
Формат/Информация : Audio Video Interleave
Размер файла : 1,43 Гбайт
Продолжительность : 1 ч. 29 м.
Общий поток : 2279 Кбит/сек
Программа кодирования : VirtualDubMod 1.5.10.2 (build 2540/release)
Библиотека кодирования : VirtualDubMod build 2540/release
Видео
Идентификатор : 0
Формат : MPEG-4 Visual
Профиль формата : Advanced Simple@L5
Параметр BVOP формата : 1
Параметр QPel формата : Нет
Параметр GMC формата : Без точки перехода
Параметр матрицы формата : Default (MPEG)
Идентификатор кодека : XVID
Идентификатор кодека/Подсказка : XviD
Продолжительность : 1 ч. 29 м.
Битрейт : 2077 Кбит/сек
Ширина : 704 пикселя
Высота : 288 пикселей
Соотношение сторон : 2,40:1
Частота кадров : 23,976 (23976/1000) кадра/сек
Цветовое пространство : YUV
Субдискретизация насыщенности : 4:2:0
Битовая глубина : 8 бит
Тип развёртки : Прогрессивная
Метод сжатия : С потерями
Бит/(Пиксели*Кадры) : 0.427
Размер потока : 1,30 Гбайт (91%)
Библиотека кодирования : XviD 1.2.1 (UTC 2008-12-04)
Аудио
Идентификатор : 1
Формат : AC-3
Формат/Информация : Audio Coding 3
Расширение режима : CM (complete main)
Параметр Endianness формата : Big
Идентификатор кодека : 2000
Продолжительность : 1 ч. 29 м.
Вид битрейта : Постоянный
Битрейт : 192 Кбит/сек
Каналы : 2 канала
Расположение каналов : Front: L R
Частота : 48,0 КГц
Частота кадров : 31,250 кадров/сек (1536 spf)
Метод сжатия : С потерями
Размер потока : 124 Мбайт (8%)
Выравнивание : Разделение по промежуткам
Продолжительность промежутка : 42 мс. (1,00 видеокадр)
Время предзагрузки промежутка : 500 мс.
Скриншот c названием фильма Скриншоты
Скачать

Скачать торрент!

Как скачивать? · Что такое торрент? · Рейтинг и ограничения

Сайт не распространяет и не хранит электронные версии произведений, а лишь предоставляет доступ к создаваемому пользователями каталогу ссылок на торрент-файлы, которые содержат только списки хеш-сумм

[Профиль] [ЛС]
Показать сообщения:    
Ответить на тему

Текущее время: Сегодня 07:00

Часовой пояс: GMT + 4



Вы не можете начинать темы
Вы не можете отвечать на сообщения
Вы не можете редактировать свои сообщения
Вы не можете удалять свои сообщения
Вы не можете голосовать в опросах
Вы не можете прикреплять файлы к сообщениям
Вы не можете скачивать файлы