Повестка в суд / Summoned (Питер Салливан / Peter Sullivan) [2013, США, триллер, детектив, WEB-DL 720p] MVO (Рен-ТВ) + VO (Barin101) + Sub Eng + Original Eng

Ответить на тему
 
Автор Сообщение

user ®

Стаж: 7 лет 7 месяцев

Сообщений: 20008

Пост Пост: #1 от 08-Дек-2015 19:51

[Цитировать]

Повестка в суд / Summoned
Страна: США
Студия: Hybrid, Lancom Entertainment, Production Media Group
Жанр: триллер, детектив
Год выпуска: 2013
Продолжительность: 01:29:40
Перевод: Профессиональный (многоголосый закадровый) Рен-ТВ
Перевод 2: Одноголосый закадровый Barin101
Cубтитры: английские
Оригинальная аудиодорожка: английский
Режиссер: Питер Салливан / Peter Sullivan
В ролях: Кьюба Гудинг мл., Эшли Скотт, Бэйли Чейз, Джеймс Хонг, Тичина Арнольд, Аманда Перез, Тим Эбелл, Скотт Уайт, Энни Литтл, Марк ДеКарло
Описание: Пять лет назад Лора Прайс и ещё одиннадцать присяжных вынесли смертный приговор серийному убийце Эвану Лукасу, который был казнён. Теперь же кто-то убивает присяжных одного за другим... Лора Прайс подозревает, что убийца вернулся с того света, чтобы отомстить, и боится, что скоро настанет её очередь...
Кинопоиск
Sample
Тип релиза: WEB-DL 720p
Контейнер: MKV
Видео: MPEG4 AVC Video, H264, 1280x718, 23.976 fps, 4101 kbps
Аудио: Russian (AC3, 2 ch, 192 kbps, 16 bits, 48.0 KHz) - MVO
Аудио 2: Russian (AC3, 2 ch, 192 kbps, 16 bits, 48.0 KHz) - VO
Аудио 3: English (AC3, 6 ch, 384 kbps, 16 bits, 48.0 KHz) - оригинал
Формат субтитров: softsub (SRT)

MediaInfo
General
Unique ID : 244618384936720497907159881699079754264 (0xB807C98932B8C785B81D2AFF3BA81218)
Complete name : K:\Summoned 2013 WEB-DL 720p.mkv
Format : Matroska
Format version : Version 4 / Version 2
File size : 3.11 GiB
Duration : 1h 29mn
Overall bit rate : 4 968 Kbps
Encoded date : UTC 2015-12-06 17:18:26
Writing application : mkvmerge v6.1.0 ('Old Devil') built on Mar 2 2013 14:32:37
Writing library : libebml v1.3.0 + libmatroska v1.4.0
Video
ID : 1
Format : AVC
Format/Info : Advanced Video Codec
Format profile : High@L3.1
Format settings, CABAC : No
Format settings, ReFrames : 2 frames
Codec ID : V_MPEG4/ISO/AVC
Duration : 1h 29mn
Bit rate : 4 101 Kbps
Width : 1 280 pixels
Height : 718 pixels
Display aspect ratio : 16:9
Frame rate mode : Constant
Frame rate : 23.976 fps
Color space : YUV
Chroma subsampling : 4:2:0
Bit depth : 8 bits
Scan type : Progressive
Bits/(Pixel*Frame) : 0.186
Stream size : 2.57 GiB (83%)
Language : English
Default : Yes
Forced : No
Color primaries : BT.709
Transfer characteristics : BT.709
Matrix coefficients : BT.709
Audio #1
ID : 2
Format : AC-3
Format/Info : Audio Coding 3
Mode extension : CM (complete main)
Format settings, Endianness : Big
Codec ID : A_AC3
Duration : 1h 29mn
Bit rate mode : Constant
Bit rate : 192 Kbps
Channel count : 2 channels
Channel positions : Front: L R
Sampling rate : 48.0 KHz
Bit depth : 16 bits
Compression mode : Lossy
Stream size : 123 MiB (4%)
Title : MVO
Language : Russian
Default : Yes
Forced : No
Audio #2
ID : 3
Format : AC-3
Format/Info : Audio Coding 3
Mode extension : CM (complete main)
Format settings, Endianness : Big
Codec ID : A_AC3
Duration : 1h 29mn
Bit rate mode : Constant
Bit rate : 192 Kbps
Channel count : 2 channels
Channel positions : Front: L R
Sampling rate : 48.0 KHz
Bit depth : 16 bits
Compression mode : Lossy
Stream size : 123 MiB (4%)
Title : VO
Language : Russian
Default : No
Forced : No
Audio #3
ID : 4
Format : AC-3
Format/Info : Audio Coding 3
Mode extension : CM (complete main)
Format settings, Endianness : Big
Codec ID : A_AC3
Duration : 1h 29mn
Bit rate mode : Constant
Bit rate : 384 Kbps
Channel count : 6 channels
Channel positions : Front: L C R, Side: L R, LFE
Sampling rate : 48.0 KHz
Bit depth : 16 bits
Compression mode : Lossy
Stream size : 246 MiB (8%)
Language : English
Default : No
Forced : No
Text
ID : 5
Format : UTF-8
Codec ID : S_TEXT/UTF8
Codec ID/Info : UTF-8 Plain Text
Language : English
Default : No
Forced : No
Menu
00:00:00.000 : en:Chapter 1
00:03:58.000 : en:Chapter 2
00:13:11.000 : en:Chapter 3
00:22:40.000 : en:Chapter 4
00:30:52.000 : en:Chapter 5
00:40:18.000 : en:Chapter 6
00:49:13.000 : en:Chapter 7
00:57:39.000 : en:Chapter 8
01:05:35.000 : en:Chapter 9
01:14:07.000 : en:Chapter 10
01:22:08.000 : en:Chapter 11
01:27:26.000 : en:Chapter 12
Скриншоты
Скачать

Скачать торрент!

Как скачивать? · Что такое торрент? · Рейтинг и ограничения

Сайт не распространяет и не хранит электронные версии произведений, а лишь предоставляет доступ к создаваемому пользователями каталогу ссылок на торрент-файлы, которые содержат только списки хеш-сумм

[Профиль] [ЛС]
Показать сообщения:    
Ответить на тему

Текущее время: Сегодня 00:39

Часовой пояс: GMT + 4



Вы не можете начинать темы
Вы не можете отвечать на сообщения
Вы не можете редактировать свои сообщения
Вы не можете удалять свои сообщения
Вы не можете голосовать в опросах
Вы не можете прикреплять файлы к сообщениям
Вы не можете скачивать файлы