Уж кто бы говорил 3 / Look Who\'s Talking Now (Том Ропелевский / Tom Ropelewski) [1993, США, комедия, мелодрама, семейный, WEB-DL 720p] 2x DVO + MVO + Sub Rus, Eng + Original Eng

Ответить на тему
 
Автор Сообщение

user ®

Стаж: 7 лет 7 месяцев

Сообщений: 20008

Пост Пост: #1 от 08-Дек-2015 19:51

[Цитировать]

Уж кто бы говорил 3 / Look Who`s Talking Now
Страна: США
Студия: TriStar Pictures
Жанр: комедия, мелодрама, семейный
Год выпуска: 1993
Продолжительность: 01:35:03
Перевод 1: Профессиональный (двухголосый закадровый) Лицензия
Перевод 2: Профессиональный (многоголосый закадровый) 6 канал Санкт-Петербург по заказу СТС
Перевод 1: Профессиональный (двухголосый закадровый) 1 канал
Cубтитры: русские, английские
Оригинальная аудиодорожка: английский
Режиссер: Том Ропелевский / Tom Ropelewski
В ролях: Джон Траволта /John Travolta/, Керсти Элли /Kirstie Alley/, Олимпия Дукакис /Olympia Dukakis/, Лизетт Энтони /Lysette Anthony/, Дэвид Гэллагер /David Gallagher/, Табита Лупьен /Tabitha Lupien
Описание: Веселая семейка Джеймса и Молли Убриакко, известная нам по двум предыдущим сериям комедийной трилогии "Уж кто бы говорил", снова с нами! Как обычно, жизнь в ней бьет ключом. Только успевай уворачиваться!
Подросшие дети - Майки и Джули - усиленно познают мир, выбирая для этого самые беспокойные и нервирующие бедных родителей способы. А помогают им методично превращать семейный очаг в сумасшедший дом парочка очаровательных псов. Подобно детишкам из первых серий, собачки умеют говорить, хотя их, опять-таки, слышат только зрители, но не герои. А тем временем, пока лучшие друзья человека изощряются в остроумии, над браком Джеймса и Молли нависает угроза в виде красивой и изнывающей от одиночества богачки Саманты (Лизетт Энтони - "Айвенго"), которая наняла мистера Убриакко в качестве личного пилота. И она не прочь позволить ему выйти за рамки рабочих отношений ...
II Сэмпл II IMDB II
Доп. информация:
За двухголосый перевод, оригинальную шестиканалку и русские субтитры спасибо WcW
За переводы СТС и 1 канала спасибо SnDamil
[url=http://***/forum/viewtopic.php?t=5128719/]Уж кто бы говорил 2[/url]
Тип релиза: WEB-DL 720p
Контейнер: MKV
Видео: AVC / 1280x720 / 16:9 / 23.976fps / Bit rate 3893
Аудио 1: AC3 / 48.0 KHz / 6ch. / 448kbps / rus / DVO Лицензия
Аудио 2: AC3 / 48.0 KHz / 2ch. / 192kbps / rus / MVO / 6 канал Санкт-Петербург
Аудио 3: AC3 / 48.0 KHz / 2ch. / 192kbps / rus / DVO / 1 канал
Аудио 4: AC3 / 48.0 KHz / 6ch. / 448kbps / eng / DVD
Аудио 5: AAC-LC / 48.0 KHz / 2ch. / 158kbps / eng / WEB-DL
Формат субтитров: softsub (SRT)
MediaInfo
Общее
Уникальный идентификатор : 220999038074184469199290147311190259473 (0xA642DDD3A699CB788BFAD38B79E3B711)
Полное имя : G:\!!!_torrent\Look.Whos.Talking.Now.1993.WEB-DL.720p.by_vedigo.mkv
Формат : Matroska
Версия формата : Version 4 / Version 2
Размер файла : 3,54 Гбайт
Продолжительность : 1 ч. 35 м.
Общий поток : 5334 Кбит/сек
Название фильма : Look.Whos.Talking.Now.1993.WEB-DL.720p.by_vedigo
Дата кодирования : UTC 2015-12-07 03:09:04
Программа кодирования : mkvmerge v8.6.1 ('Flying') 64bit
Библиотека кодирования : libebml v1.3.3 + libmatroska v1.4.4
Видео
Идентификатор : 1
Формат : AVC
Формат/Информация : Advanced Video Codec
Профиль формата : High@L3.1
Параметр CABAC формата : Нет
Параметр ReFrames формата : 2 кадра
Идентификатор кодека : V_MPEG4/ISO/AVC
Продолжительность : 1 ч. 35 м.
Битрейт : 3893 Кбит/сек
Ширина : 1280 пикселей
Высота : 720 пикселей
Соотношение сторон : 16:9
Режим частоты кадров : Постоянный
Частота кадров : 23,976 (23976/1000) кадра/сек
Цветовое пространство : YUV
Субдискретизация насыщенности : 4:2:0
Битовая глубина : 8 бит
Тип развёртки : Прогрессивная
Бит/(Пиксели*Кадры) : 0.176
Размер потока : 2,58 Гбайт (73%)
Заголовок : Look.Whos.Talking.Now.1993.WEB-DL.720p.by_vedigo
Default : Да
Forced : Нет
Цветовой диапазон : Limited
Основные цвета : BT.709
Характеристики трансфера : BT.709
Коэффициенты матрицы : BT.709
Аудио #1
Идентификатор : 2
Формат : AC-3
Формат/Информация : Audio Coding 3
Расширение режима : CM (complete main)
Параметр Endianness формата : Big
Идентификатор кодека : A_AC3
Продолжительность : 1 ч. 35 м.
Вид битрейта : Постоянный
Битрейт : 448 Кбит/сек
Каналы : 6 каналов
Расположение каналов : Front: L C R, Side: L R, LFE
Частота : 48,0 КГц
Частота кадров : 31,250 кадров/сек (1536 spf)
Метод сжатия : С потерями
Размер потока : 305 Мбайт (8%)
Заголовок : DVO
Язык : Russian
Default : Да
Forced : Нет
Аудио #2
Идентификатор : 3
Формат : AC-3
Формат/Информация : Audio Coding 3
Расширение режима : CM (complete main)
Параметр Endianness формата : Big
Идентификатор кодека : A_AC3
Продолжительность : 1 ч. 35 м.
Вид битрейта : Постоянный
Битрейт : 192 Кбит/сек
Каналы : 2 канала
Расположение каналов : Front: L R
Частота : 48,0 КГц
Частота кадров : 31,250 кадров/сек (1536 spf)
Метод сжатия : С потерями
Размер потока : 131 Мбайт (4%)
Заголовок : MVO @ 6 канал Санкт-Петербург
Язык : Russian
Default : Нет
Forced : Нет
Аудио #3
Идентификатор : 4
Формат : AC-3
Формат/Информация : Audio Coding 3
Расширение режима : CM (complete main)
Параметр Endianness формата : Big
Идентификатор кодека : A_AC3
Продолжительность : 1 ч. 35 м.
Вид битрейта : Постоянный
Битрейт : 192 Кбит/сек
Каналы : 2 канала
Расположение каналов : Front: L R
Частота : 48,0 КГц
Частота кадров : 31,250 кадров/сек (1536 spf)
Метод сжатия : С потерями
Размер потока : 131 Мбайт (4%)
Заголовок : DVO @ 1 канал
Язык : Russian
Default : Нет
Forced : Нет
Аудио #4
Идентификатор : 5
Формат : AC-3
Формат/Информация : Audio Coding 3
Расширение режима : CM (complete main)
Параметр Endianness формата : Big
Идентификатор кодека : A_AC3
Продолжительность : 1 ч. 35 м.
Вид битрейта : Постоянный
Битрейт : 448 Кбит/сек
Каналы : 6 каналов
Расположение каналов : Front: L C R, Side: L R, LFE
Частота : 48,0 КГц
Частота кадров : 31,250 кадров/сек (1536 spf)
Метод сжатия : С потерями
Размер потока : 305 Мбайт (8%)
Заголовок : original @ DVD
Язык : English
Default : Нет
Forced : Нет
Аудио #5
Идентификатор : 6
Формат : AAC
Формат/Информация : Advanced Audio Codec
Профиль формата : LC
Идентификатор кодека : A_AAC
Продолжительность : 1 ч. 35 м.
Битрейт : 158 Кбит/сек
Каналы : 2 канала
Расположение каналов : Front: L R
Частота : 48,0 КГц
Частота кадров : 46,875 кадров/сек (1024 spf)
Метод сжатия : С потерями
Размер потока : 107 Мбайт (3%)
Заголовок : original @ WEB-DL
Язык : English
Default : Нет
Forced : Нет
Текст #1
Идентификатор : 7
Формат : UTF-8
Идентификатор кодека : S_TEXT/UTF8
Идентификатор кодека/Информация : UTF-8 Plain Text
Продолжительность : 1 ч. 30 м.
Битрейт : 101 бит/сек
Count of elements : 1127
Размер потока : 67,3 Кбайт (0%)
Заголовок : subtitle rus
Язык : Russian
Default : Нет
Forced : Нет
Текст #2
Идентификатор : 8
Формат : UTF-8
Идентификатор кодека : S_TEXT/UTF8
Идентификатор кодека/Информация : UTF-8 Plain Text
Продолжительность : 1 ч. 30 м.
Битрейт : 67 бит/сек
Count of elements : 1353
Размер потока : 44,8 Кбайт (0%)
Заголовок : subtitle eng
Язык : English
Default : Нет
Forced : Нет
Меню
00:00:00.000 : en:Start
00:04:28.000 : en:Rocks
00:08:23.000 : en:Samantha D'Bonne
00:10:01.000 : en:Meeting the Ubriacco family
00:11:41.000 : en:"Honey, I was fired!"
00:14:47.000 : en:The Great Escape
00:16:05.000 : en:Santa's elf
00:20:41.000 : en:"The Chipmunk Song"
00:23:40.000 : en:Barkley & Julie
00:26:18.000 : en:The pound
00:30:15.000 : en:Daphne
00:38:15.000 : en:Peter Pan
00:41:59.000 : en:Dinner with Mollie & Rosie
00:48:13.000 : en:"Please Come Home For Christmas"
00:51:44.000 : en:In dreams
00:54:25.000 : en:Ballroom dancing
00:56:14.000 : en:Rocks takes Daphne out
00:58:01.000 : en:The glory of mud
01:00:36.000 : en:Saving 3000 jobs
01:06:35.000 : en:Frozen fantasy
01:10:14.000 : en:"Might as well relax."
01:13:50.000 : en:Ditched
01:16:45.000 : en:"Meals on wheels."
01:20:35.000 : en:Teaching Sam to dance
01:21:42.000 : en:Finding James
01:23:18.000 : en:"My dog's a genius!"
01:26:25.000 : en:Pack of wolves
01:27:17.000 : en:"Have A Little Faith In Me"
Скриншоты
Скачать

Скачать торрент!

Как скачивать? · Что такое торрент? · Рейтинг и ограничения

Сайт не распространяет и не хранит электронные версии произведений, а лишь предоставляет доступ к создаваемому пользователями каталогу ссылок на торрент-файлы, которые содержат только списки хеш-сумм

[Профиль] [ЛС]
Показать сообщения:    
Ответить на тему

Текущее время: Сегодня 18:02

Часовой пояс: GMT + 4



Вы не можете начинать темы
Вы не можете отвечать на сообщения
Вы не можете редактировать свои сообщения
Вы не можете удалять свои сообщения
Вы не можете голосовать в опросах
Вы не можете прикреплять файлы к сообщениям
Вы не можете скачивать файлы