Оставайтесь с нами / Stay Tuned (Питер Хайэмс / Peter Hyams) [1992, США, комедия, WEB-DL 1080p] AVO (Василий Горчаков) + VO (Вадим Белов) + Sub Eng + Original Eng

Ответить на тему
 
Автор Сообщение

user ®

Стаж: 7 лет 7 месяцев

Сообщений: 20008

Пост Пост: #1 от 08-Дек-2015 19:51

[Цитировать]

Оставайтесь с нами / Stay Tuned
Страна: США
Студия: Morgan Creek Productions, Warner Bros.
Жанр: комедия
Год выпуска: 1992
Продолжительность: 01:28:18
Перевод 1: Авторский (одноголосый закадровый) Василий Горчаков
Перевод 2: Одноголосый закадровый Вадим Белов
Cубтитры: английские
Оригинальная аудиодорожка: английский
Режиссер: Питер Хайэмс / Peter Hyams
В ролях: Джон Риттер, Пэм Добер, Джеффри Джоунс, Дэвид Том, Хезер МакКомб, Боб Диши, Джойс Гордон, Юджин Леви, Эрик Кинг, Евгений Леви и др.
Описание: Лежебока Рой Нэйбл (Джон Риттер - "Плохой Санта") попадает в иное измерение и оказывается по ту сторону экрана. Если он сможет выжить, то вернется домой. Если же нет, то его закроют, как и любое шоу с низким рейтингом... причем закроют навсегда!
Недавно установленная спутниковая тарелка затянула нашего героя и его жену (Пэм Добер) в странный и причудливый телемир. Чету Нэйблов ждет вынужденное "гостевое участие" в многочисленных кошмарных шоу, среди которых "Переехать мисс Дэйзи", "Вскрытие богатых и знаменитых", "Адское MTV", "Колесо пыток", "Северное обнажение до костей", а также встреча с персонажем, по имени "Робо-кот" (созданным гением анимации Чаком Джонсом). Заправляет всем этим дьявольским телевизионным безобразием продюсер из ада (Джеффри Джонс - "Темная лощина", "Адвокат дьявола").
Это замечательная кинопародия поставлена знаменитым режиссером Питером Хайэмсом ("Конец света", "Реликт", "Внезапная смерть") с воистину демонической неистовостью.
II Сэмпл II IMDB II
Доп. информация:
За перевод Василия Горчакова спасибо _int_
За перевод Вадима Белова спасибо mihaildns
Тип релиза: WEB-DL 1080p
Контейнер: MKV
Видео: AVC / 1916x812 / 2.35:1 / 23.976fps / Bit rate 3726Kbps
Аудио 1: AC3 / 48.0 KHz / 2ch. / 192kbps / rus / AVO / Василий Горчаков
Аудио 2: AC3 / 48.0 KHz / 2ch. / 192kbps / rus / VO / Вадим Белов
Аудио 3: AC3 / 48.0 KHz / 2ch. / 192kbps / eng
Формат субтитров: softsub (SRT)
MediaInfo
Общее
Уникальный идентификатор : 221680681083404461592857889877571722849 (0xA6C6256BFDCEE090A9A04556EA70DE61)
Полное имя : G:\!!!_torrent\Stay.Tuned.1992.WEB-DL.1080p_by_vedigo.mkv
Формат : Matroska
Версия формата : Version 4 / Version 2
Размер файла : 2,66 Гбайт
Продолжительность : 1 ч. 28 м.
Общий поток : 4304 Кбит/сек
Название фильма : Stay.Tuned.1992.WEB-DL.1080p_by_vedigo
Дата кодирования : UTC 2015-12-03 08:26:36
Программа кодирования : mkvmerge v8.6.1 ('Flying') 64bit
Библиотека кодирования : libebml v1.3.3 + libmatroska v1.4.4
Видео
Идентификатор : 1
Формат : AVC
Формат/Информация : Advanced Video Codec
Профиль формата : High@L4
Параметр CABAC формата : Да
Параметр ReFrames формата : 5 кадров
Параметр GOP формата : N=2
Идентификатор кодека : V_MPEG4/ISO/AVC
Продолжительность : 1 ч. 28 м.
Битрейт : 3726 Кбит/сек
Ширина : 1916 пикселей
Высота : 812 пикселей
Соотношение сторон : 2,35:1
Режим частоты кадров : Постоянный
Частота кадров : 23,976 кадра/сек
Цветовое пространство : YUV
Субдискретизация насыщенности : 4:2:0
Битовая глубина : 8 бит
Тип развёртки : Прогрессивная
Бит/(Пиксели*Кадры) : 0.100
Размер потока : 2,30 Гбайт (87%)
Заголовок : Stay.Tuned.1992.WEB-DL.1080p_by_vedigo
Default : Да
Forced : Нет
Цветовой диапазон : Limited
Основные цвета : BT.709
Характеристики трансфера : BT.709
Коэффициенты матрицы : BT.709
Аудио #1
Идентификатор : 2
Формат : AC-3
Формат/Информация : Audio Coding 3
Расширение режима : CM (complete main)
Параметр Endianness формата : Big
Идентификатор кодека : A_AC3
Продолжительность : 1 ч. 28 м.
Вид битрейта : Постоянный
Битрейт : 192 Кбит/сек
Каналы : 2 канала
Расположение каналов : Front: L R
Частота : 48,0 КГц
Частота кадров : 31,250 кадров/сек (1536 spf)
Метод сжатия : С потерями
Размер потока : 121 Мбайт (4%)
Заголовок : AVO @ Василий Горчаков
Язык : Russian
Default : Да
Forced : Нет
Аудио #2
Идентификатор : 3
Формат : AC-3
Формат/Информация : Audio Coding 3
Расширение режима : CM (complete main)
Параметр Endianness формата : Big
Идентификатор кодека : A_AC3
Продолжительность : 1 ч. 28 м.
Вид битрейта : Постоянный
Битрейт : 192 Кбит/сек
Каналы : 2 канала
Расположение каналов : Front: L R
Частота : 48,0 КГц
Частота кадров : 31,250 кадров/сек (1536 spf)
Метод сжатия : С потерями
Размер потока : 121 Мбайт (4%)
Заголовок : VO @ Вадим Белов
Язык : Russian
Default : Нет
Forced : Нет
Аудио #3
Идентификатор : 4
Формат : AC-3
Формат/Информация : Audio Coding 3
Профиль формата : Dolby Digital
Расширение режима : CM (complete main)
Параметр Endianness формата : Big
Идентификатор кодека : A_AC3
Продолжительность : 1 ч. 28 м.
Вид битрейта : Постоянный
Битрейт : 192 Кбит/сек
Каналы : 2 канала
Расположение каналов : Front: L R
Частота : 48,0 КГц
Частота кадров : 31,250 кадров/сек (1536 spf)
Метод сжатия : С потерями
Размер потока : 121 Мбайт (4%)
Заголовок : original
Язык : English
Default : Нет
Forced : Нет
Текст
Идентификатор : 5
Формат : UTF-8
Идентификатор кодека : S_TEXT/UTF8
Идентификатор кодека/Информация : UTF-8 Plain Text
Продолжительность : 1 ч. 27 м.
Битрейт : 63 бит/сек
Count of elements : 1553
Размер потока : 40,6 Кбайт (0%)
Заголовок : subtitle eng
Язык : English
Default : Нет
Forced : Нет
Скриншоты
Скачать

Скачать торрент!

Как скачивать? · Что такое торрент? · Рейтинг и ограничения

Сайт не распространяет и не хранит электронные версии произведений, а лишь предоставляет доступ к создаваемому пользователями каталогу ссылок на торрент-файлы, которые содержат только списки хеш-сумм

[Профиль] [ЛС]
Показать сообщения:    
Ответить на тему

Текущее время: Сегодня 07:58

Часовой пояс: GMT + 4



Вы не можете начинать темы
Вы не можете отвечать на сообщения
Вы не можете редактировать свои сообщения
Вы не можете удалять свои сообщения
Вы не можете голосовать в опросах
Вы не можете прикреплять файлы к сообщениям
Вы не можете скачивать файлы