Грета / Greta (Нэнси Бардавил / Nancy Bardawil) [2009, США, мелодрама, драма, BDRip 720p] DVO (НТВ+) + Sub Rus, Eng + Original Eng

Ответить на тему
 
Автор Сообщение

user ®

Стаж: 7 лет 7 месяцев

Сообщений: 20008

Пост Пост: #1 от 08-Дек-2015 19:51

[Цитировать]

Грета / Greta
Страна: США
Жанр: мелодрама, драма
Год выпуска: 2009
Продолжительность: 01:32:06
Перевод: Профессиональный (двухголосый закадровый) НТВ+
Cубтитры: Russian (x2), English
Оригинальная аудиодорожка: английский-Режиссер: Нэнси Бардавил / Nancy Bardawil-В ролях: Хилари Дафф, Ивэн Росс, Майкл Мерфи, Эллен Бёрстин, Мелисса Лео, Мори Гинсберг, Джон Ротмен, Сильвия Каудерс, Орен Скуг, Дэйв Шалански-Описание: Грета в поездке, но не на отдыхе. Ей шестнадцать, она яркая, красивая и очень мятежная. Она полна сарказма, но это не скрывает её страданий. Её мать, Карен, находящаяся в третьем браке, отправляет Грету на лето к бабушке и дедушке, только сама Грета этому не рада. Грета рассказывает им о том, что полна намерений убить себя до того, как закончится лето, а методы самоубийства записывает в свой блокнот. Она действительно желает покончить жизнь самоубийством и, вскоре, показывает, насколько серьёзны её намерения. Но в это лето у неё появляется первый летний роман, раскрывающий её харизматическую и женственную молодую личность.-Релиз от: by delia-Рип от SbR-Качество видео: BDRip | Sample
Формат видео: MKV
Видео: 1280x692 at 23.976 fps, x264@L4.1, ~8383 kbps avg
Аудио 1: Russian: 48 kHz, AC3, 2/0 (L,R) ch, ~192.00 kbps avg |Двухголосый закадровый, "НТВ+"|
Аудио 2: English: 48 kHz, AC3, 3/2 (L,C,R,l,r) + LFE ch, ~640 kbps avg-Дополнительно
Цитата:
  • Сохранены оригинальные чаптеры как на Blu-ray.
  • За основу для субтитров #1 и #2 спасибо Бабовниковой Маргарите и фан-клубу hilaryclub (Татьяна Шилова, Ирина Филиппова, Ольга Балашова).
  • Субтитры #1 и #2 были основательно исправлены и полностью отредактированы.
  • В оригинале фильм имеет также название According to Greta.
MediaInfo
Format                      : Matroska
Format version              : Version 4 / Version 2
File size                   : 5.93 GiB
Duration                    : 1h 32mn
Overall bit rate            : 9 219 Kbps
Encoded date                : UTC 2015-12-05 17:57:45
Writing application         : mkvmerge v8.3.0 ('Over the Horizon') 64bit
Writing library             : libebml v1.3.1 + libmatroska v1.4.2
Attachements                : cover.jpg
DURATION                    : 01:26:21.932000000
NUMBER_OF_FRAMES            : 1211
NUMBER_OF_BYTES             : 57869
_STATISTICS_WRITING_APP     : mkvmerge v8.3.0 ('Over the Horizon') 64bit
_STATISTICS_WRITING_DATE_UT : 2015-12-05 17:57:45
_STATISTICS_TAGS            : BPS DURATION NUMBER_OF_FRAMES NUMBER_OF_BYTES
Video
ID                          : 1
Format                      : AVC
Format/Info                 : Advanced Video Codec
Format profile              : High@L4.1
Format settings, CABAC      : Yes
Format settings, ReFrames   : 9 frames
Codec ID                    : V_MPEG4/ISO/AVC
Duration                    : 1h 32mn
Bit rate                    : 8 203 Kbps
Width                       : 1 280 pixels
Height                      : 692 pixels
Display aspect ratio        : 1.85:1
Frame rate mode             : Constant
Frame rate                  : 23.976 fps
Color space                 : YUV
Chroma subsampling          : 4:2:0
Bit depth                   : 8 bits
Scan type                   : Progressive
Bits/(Pixel*Frame)          : 0.386
Stream size                 : 5.28 GiB (89%)
Writing library             : x264 core 148 r2638+53 bb29004 t_mod_Custom [8-bit@all X86_64]
Encoding settings           : cabac=1 / ref=9 / deblock=1:-3:-3 / analyse=0x3:0x133 / me=umh / subme=11 / psy=1 / fade_compensate=0.00 / psy_rd=1.05:0.00 / mixed_ref=1 / me_range=24 / chroma_me=1 / trellis=2 / 8x8dct=1 / cqm=0 / deadzone=21,11 / fast_pskip=0 / chroma_qp_offset=-2 / threads=6 / lookahead_threads=1 / sliced_threads=0 / nr=0 / decimate=1 / interlaced=0 / bluray_compat=0 / constrained_intra=0 / fgo=0 / bframes=11 / b_pyramid=2 / b_adapt=2 / b_bias=0 / direct=3 / weightb=1 / open_gop=0 / weightp=2 / keyint=250 / keyint_min=23 / scenecut=40 / intra_refresh=0 / rc_lookahead=60 / rc=crf / mbtree=0 / crf=17.0000 / qcomp=0.65 / qpmin=0:0:0 / qpmax=69:69:69 / qpstep=4 / vbv_maxrate=62500 / vbv_bufsize=78125 / crf_max=0.0 / nal_hrd=none / filler=0 / ip_ratio=1.40 / pb_ratio=1.30 / aq=1:0.80 / aq-sensitivity=10.00 / aq-factor=1.00:1.00:1.00 / aq2=0 / aq3=0
Language                    : English
Default                     : Yes
Forced                      : No
Color range                 : Limited
Color primaries             : BT.709
Transfer characteristics    : BT.709
Matrix coefficients         : BT.709
DURATION                    : 01:32:06.521000000
NUMBER_OF_FRAMES            : 132504
NUMBER_OF_BYTES             : 5791535733
_STATISTICS_WRITING_APP     : mkvmerge v8.3.0 ('Over the Horizon') 64bit
_STATISTICS_WRITING_DATE_UT : 2015-12-05 17:57:45
_STATISTICS_TAGS            : BPS DURATION NUMBER_OF_FRAMES NUMBER_OF_BYTES
Audio #1
ID                          : 2
Format                      : AC-3
Format/Info                 : Audio Coding 3
Mode extension              : CM (complete main)
Format settings, Endianness : Big
Codec ID                    : A_AC3
Duration                    : 1h 32mn
Bit rate mode               : Constant
Bit rate                    : 192 Kbps
Channel(s)                  : 2 channels
Channel positions           : Front: L R
Sampling rate               : 48.0 KHz
Compression mode            : Lossy
Stream size                 : 126 MiB (2%)
Title                       : Двухголосый закадровый, "НТВ+"
Language                    : Russian
Default                     : Yes
Forced                      : No
Audio #2
ID                          : 3
Format                      : AC-3
Format/Info                 : Audio Coding 3
Mode extension              : CM (complete main)
Format settings, Endianness : Big
Codec ID                    : A_AC3
Duration                    : 1h 32mn
Bit rate mode               : Constant
Bit rate                    : 640 Kbps
Channel(s)                  : 6 channels
Channel positions           : Front: L C R, Side: L R, LFE
Sampling rate               : 48.0 KHz
Compression mode            : Lossy
Stream size                 : 422 MiB (7%)
Language                    : English
Default                     : No
Forced                      : No
Text #1
ID                          : 4
Format                      : UTF-8
Codec ID                    : S_TEXT/UTF8
Codec ID/Info               : UTF-8 Plain Text
Language                    : Russian
Default                     : No
Forced                      : No
Text #2
ID                          : 5
Format                      : UTF-8
Codec ID                    : S_TEXT/UTF8
Codec ID/Info               : UTF-8 Plain Text
Language                    : Russian
Default                     : No
Forced                      : No
Text #3
ID                          : 6
Format                      : UTF-8
Codec ID                    : S_TEXT/UTF8
Codec ID/Info               : UTF-8 Plain Text
Language                    : English
Default                     : No
Forced                      : No
Text #4
ID                          : 7
Format                      : UTF-8
Codec ID                    : S_TEXT/UTF8
Codec ID/Info               : UTF-8 Plain Text
Title                       : SDH
Language                    : English
Default                     : No
Forced                      : No
Menu
00:00:00.000                : en:00:00:00.000
00:02:44.872                : en:00:02:44.872
00:12:27.620                : en:00:12:27.620
00:21:26.742                : en:00:21:26.742
00:28:45.515                : en:00:28:45.515
00:40:13.411                : en:00:40:13.411
00:47:58.000                : en:00:47:58.000
00:55:48.594                : en:00:55:48.594
01:04:07.844                : en:01:04:07.844
01:13:27.319                : en:01:13:27.319
01:19:21.756                : en:01:19:21.756
01:26:59.213                : en:01:26:59.213
Скриншоты
Скачать

Скачать торрент!

Как скачивать? · Что такое торрент? · Рейтинг и ограничения

Сайт не распространяет и не хранит электронные версии произведений, а лишь предоставляет доступ к создаваемому пользователями каталогу ссылок на торрент-файлы, которые содержат только списки хеш-сумм

[Профиль] [ЛС]
Показать сообщения:    
Ответить на тему

Текущее время: Сегодня 10:55

Часовой пояс: GMT + 4



Вы не можете начинать темы
Вы не можете отвечать на сообщения
Вы не можете редактировать свои сообщения
Вы не можете удалять свои сообщения
Вы не можете голосовать в опросах
Вы не можете прикреплять файлы к сообщениям
Вы не можете скачивать файлы