Ангелы революции (Алексей Федорченко) [2014, Романтическая драма, WEB-DLRip]

Ответить на тему
 
Автор Сообщение

user ®

Стаж: 7 лет 7 месяцев

Сообщений: 20008

Пост Пост: #1 от 08-Дек-2015 07:27

[Цитировать]

Ангелы революции
Жанр: Романтическая драма
Год выпуска: 2014
Продолжительность: 01:48:15
Режиссёр: Алексей Федорченко
Актёры: Дарья Екамасова, Георгий Иобадзе, Олег Ягодин, Павел Басов, Константин Балакирев, Алексей Солончев, Полина Ауг, Владимир Кабалин, Любовь Островская, Екатерина Соколова, Ирина Ермолова, Яков Тарлин, Борис Петров, Екатерина Обатина, Тамара Зимина, Юрий Тарлин, Валентина Тарлина, Валентина Контерева, Вероника Контерева, Пётр Тоголмазов, Денис Волдин, Сергей Ровин, Сергей Колесов, Алиса Кравцова, Василина Маковцева, Сергей Фёдоров, Илья Белов, Виктор Тереля, Евгения Опалько, Артем Санин, Сергей Окладников, Соня Плошкина, Андрей Дымшаков, Варя Федорченко, и др.
Краткая аннотация: Фильм основан на реальных событиях.
1934 год. На крайнем севере СССР не спокойно - хантыйские и ненецкие шаманы не хотят принимать новые Советские традиции, и ломать устоявшийся многовековой быт...
Чтобы примирить две великие культуры - культуру Русского Авангарда и Древнее Язычество, в Обскую тайгу отправляются деятели авангардных искусств: композитор, скульптор, театральный режиссёр, архитектор-конструктивист, кинорежиссёр-примитивист. Руководит отрядом революционных деятелей авангардных искусств - знаменитая "Полина-Революция"…

Качество видео: WEB-DLRip
Формат видео: AVI
Видео: 720x400 (1.80:1), 23.976 fps, XviD build 50 ~1605 kbps avg, 0.23 bit/pixel
Аудио: 48 kHz, AC3 Dolby Digital, 2/0 (L,R) ch, ~192 kbps
AviInfo
File: Ангелы_революции_2014_WEB-DLRip_[***].aviFilesize: 1399.35 Mb ( 1 467 326 464 bytes )Play length: 01:48:15.071 (155726 frames)Subtitles: Not PresentVideo: 720x400 (1.80:1), 23.976 fps, XviD build 50 ~1605 kbps avg, 0.23 bit/pixelAudio: 48 kHz, AC3 Dolby Digital, 2/0 (L,R) ch, ~192 kbps
MediaInfo
ОбщееПолное имя : V:\Ангелы_революции_2014_WEB-DLRip_[***].aviФормат : AVIФормат/Информация : Audio Video InterleaveРазмер файла : 1,37 ГбайтПродолжительность : 1 ч. 48 м.Общий поток : 1807 Кбит/секПрограмма кодирования : VirtualDubMod 1.5.10.2 (build 2540/release)Библиотека кодирования : VirtualDubMod build 2540/release
ВидеоИдентификатор : 0Формат : MPEG-4 VisualПрофиль формата : Advanced Simple@L5Параметр BVOP формата : 2Параметр QPel формата : НетПараметр GMC формата : Без точки переходаПараметр матрицы формата : Default (MPEG)Идентификатор кодека : XVIDИдентификатор кодека/Подсказка : XviDПродолжительность : 1 ч. 48 м.Битрейт : 1606 Кбит/секШирина : 720 пикселейВысота : 400 пикселейСоотношение сторон : 16:9Частота кадров : 23,976 кадра/секЦветовое пространство : YUVСубдискретизация насыщенности : 4:2:0Битовая глубина : 8 битТип развёртки : ПрогрессивнаяМетод сжатия : С потерямиБит/(Пиксели*Кадры) : 0.233Размер потока : 1,21 Гбайт (89%)Библиотека кодирования : XviD 1.2.1 (UTC 2008-12-04)
АудиоИдентификатор : 1Формат : AC-3Формат/Информация : Audio Coding 3Расширение режима : CM (complete main)Параметр Endianness формата : BigИдентификатор кодека : 2000Продолжительность : 1 ч. 48 м.Вид битрейта : ПостоянныйБитрейт : 192 Кбит/секКаналы : 2 каналаРасположение каналов : Front: L RЧастота : 48,0 КГцБитовая глубина : 16 битМетод сжатия : С потерямиРазмер потока : 149 Мбайт (11%)Выравнивание : Разделение по промежуткамПродолжительность промежутка : 42 мс. (1,00 видеокадр)Время предзагрузки промежутка : 500 мс.
Скриншот c названием фильма Скриншоты Дополнительная информация
Сайт фильма: www.angelsofrevolution.ru
Время раздачи - по возможности.
Скачать

Скачать торрент!

Как скачивать? · Что такое торрент? · Рейтинг и ограничения

Сайт не распространяет и не хранит электронные версии произведений, а лишь предоставляет доступ к создаваемому пользователями каталогу ссылок на торрент-файлы, которые содержат только списки хеш-сумм

[Профиль] [ЛС]
Показать сообщения:    
Ответить на тему

Текущее время: Сегодня 16:35

Часовой пояс: GMT + 4



Вы не можете начинать темы
Вы не можете отвечать на сообщения
Вы не можете редактировать свои сообщения
Вы не можете удалять свои сообщения
Вы не можете голосовать в опросах
Вы не можете прикреплять файлы к сообщениям
Вы не можете скачивать файлы