Ловушка для привидения / Gespensterjäger (Тоби Бауманн / Tobi Baumann) [2015, Германия, Австрия, Ирландия, фэнтези, комедия, семейный, HDRip] DVO

Ответить на тему
 
Автор Сообщение

user ®

Стаж: 7 лет 7 месяцев

Сообщений: 20008

Пост Пост: #1 от 08-Дек-2015 04:24

[Цитировать]

Ловушка для привидения / Gespensterjäger
Страна: Германия, Австрия, Ирландия
Жанр: фэнтези, комедия, семейный
Год выпуска: 2015
Продолжительность: 01:38:48
Перевод: Любительский (двухголосый закадровый) [Sunshine Studio & Parovoz Production]
Cубтитры: Нет
Режиссер: Тоби Бауманн / Tobi Baumann
В ролях: Анке Энгельке, Майло Паркер, Бастиан Пастевка, Каролине Херфурт, Кристиан Трамиц, Кристиан Ульмен, Юлия Кошиц, Руби О. Фи, Эми Хубермэн, Бибиан Целлер...
Описание: История 11-летнего одинокого Тома. После встречи с очаровательным упитанным привидением Хьюго в подвале своего дома жизнь мальчика изменится самым удивительным образом. Ему придется проявить истинную храбрость и на пару с охотницей за привидениями Хэтти помочь Хьюго вернуться к себе домой. Для этого героям нужно пройти через массу препятствий, чтобы уничтожить Древний Дух Льда, который живет в доме Хьюго, и грозит повергнуть весь город в вечную мерзлоту. Но для того, чтобы совершить подвиги, Тому и Хэтти нужно будет заглянуть к себе в сердце…



Качество видео: HDRip
Формат видео: AVI
Видео: 720x296 (2.43:1), 23.976 fps, XviD build 50 ~1780 kbps avg, 0.35 bit/pixel
Аудио: 48 kHz, AC3 Dolby Digital, 2/0 (L,R) ch, ~192 kbps

MediaInfo
Format : AVI
Format/Info : Audio Video Interleave
File size : 1.37 GiB
Duration : 1h 38mn
Overall bit rate : 1 982 Kbps
Writing application : VirtualDubMod 1.5.10.3 | www.virtualdub-fr.org || (build 2550/release)
Writing library : VirtualDubMod build 2550/release
Video
ID : 0
Format : MPEG-4 Visual
Format profile : Advanced Simple@L5
Format settings, BVOP : 2
Format settings, QPel : No
Format settings, GMC : No warppoints
Format settings, Matrix : Default (H.263)
Codec ID : XVID
Codec ID/Hint : XviD
Duration : 1h 38mn
Bit rate : 1 781 Kbps
Width : 720 pixels
Height : 296 pixels
Display aspect ratio : 2.40:1
Frame rate : 23.976 fps
Color space : YUV
Chroma subsampling : 4:2:0
Bit depth : 8 bits
Scan type : Progressive
Compression mode : Lossy
Bits/(Pixel*Frame) : 0.348
Stream size : 1.23 GiB (90%)
Writing library : XviD 1.2.1 (UTC 2008-12-04)
Audio
ID : 1
Format : AC-3
Format/Info : Audio Coding 3
Mode extension : CM (complete main)
Format settings, Endianness : Big
Codec ID : 2000
Duration : 1h 38mn
Bit rate mode : Constant
Bit rate : 192 Kbps
Channel(s) : 2 channels
Channel positions : Front: L R
Sampling rate : 48.0 KHz
Bit depth : 16 bits
Compression mode : Lossy
Stream size : 136 MiB (10%)
Alignment : Split accross interleaves
Interleave, duration : 42 ms (1.00 video frame)
Interleave, preload duration : 500 ms
Скриншот c названием фильма Скриншоты
Скачать

Скачать торрент!

Как скачивать? · Что такое торрент? · Рейтинг и ограничения

Сайт не распространяет и не хранит электронные версии произведений, а лишь предоставляет доступ к создаваемому пользователями каталогу ссылок на торрент-файлы, которые содержат только списки хеш-сумм

[Профиль] [ЛС]
Показать сообщения:    
Ответить на тему

Текущее время: Сегодня 12:53

Часовой пояс: GMT + 4



Вы не можете начинать темы
Вы не можете отвечать на сообщения
Вы не можете редактировать свои сообщения
Вы не можете удалять свои сообщения
Вы не можете голосовать в опросах
Вы не можете прикреплять файлы к сообщениям
Вы не можете скачивать файлы