Хитмэн: Агент 47 / Hitman: Agent 47 (Александр Бах / Aleksander Bach) [2015, США, Германия, Индонезия, боевик, триллер, криминал, BDRip 1080p] Dub + Sub Rus, Eng + Original Eng

Ответить на тему
 
Автор Сообщение

user ®

Стаж: 7 лет 7 месяцев

Сообщений: 20008

Пост Пост: #1 от 07-Дек-2015 16:00

[Цитировать]

Хитмэн: Агент 47 / Hitman: Agent 47
Страна: США, Германия, Индонезия
Студия: Twentieth Century Fox Film Corporation, TSG Entertainment, Fox International Productions
Жанр: боевик, триллер, криминал
Год выпуска: 2015
Продолжительность: 01:36:18
Перевод: Профессиональный (дублированный)
Cубтитры: Rus, Eng
Оригинальная аудиодорожка: английский
Режиссер: Александр Бах / Aleksander Bach
В ролях: Руперт Френд, Анджела Бейби, Дэн Баккедаль, Шарлин Бек, Михаэль Борнхюттер, Нильс Брункхорст, Михаэлла Каспар, Майкл Коркоран
Описание: История об элитном убийце, созданном при помощи генной инженерии, который объединяется с женщиной, чтобы помочь ей найти отца и раскрыть тайну своего происхождения.

Тип релиза: BDRip 1080p
Контейнер: MKV
Видео: MPEG-4 AVC, 12.0 Mбит/с, 1920x804, 23,976 fps
Аудио: Rus, DTS, 768 kb/s (6 ch), 48 kHz
Аудио 2: Eng, DTS, 1510 kb/s (6 ch), 48 kHz
Формат субтитров: softsub (SRT)
MediaInfo
Format : Matroska
Format version : Version 4 / Version 2
File size : 9.56 GiB
Duration : 1h 36mn
Overall bit rate : 14.2 Mbps
Movie name : Хитмэн: Агент 47. (Tonik)
Encoded date : UTC 2015-12-07 07:07:10
Writing application : mkvmerge v7.1.0 ('Good Love') 64bit built on Jul 27 2014 13:06:55
Writing library : libebml v1.3.0 + libmatroska v1.4.1
_STATISTICS_WRITING_APP : mkvmerge v7.1.0 ('Good Love') 64bit built on Jul 27 2014 13:06:55
_STATISTICS_WRITING_DATE_UTC : 2015-12-07 07:07:10
_STATISTICS_TAGS : BPS DURATION NUMBER_OF_FRAMES NUMBER_OF_BYTES
DURATION : 01:36:16.813000000
NUMBER_OF_FRAMES : 138505
NUMBER_OF_BYTES : 8615805610
Video
ID : 1
Format : AVC
Format/Info : Advanced Video Codec
Format profile : High@L4.1
Format settings, CABAC : Yes
Format settings, ReFrames : 5 frames
Codec ID : V_MPEG4/ISO/AVC
Duration : 1h 36mn
Bit rate : 12.0 Mbps
Width : 1 920 pixels
Height : 804 pixels
Display aspect ratio : 2.40:1
Frame rate mode : Constant
Frame rate : 23.976 fps
Color space : YUV
Chroma subsampling : 4:2:0
Bit depth : 8 bits
Scan type : Progressive
Bits/(Pixel*Frame) : 0.324
Stream size : 7.84 GiB (82%)
Writing library : x264 core 148 r2597 e86f3a1
Encoding settings : cabac=1 / ref=5 / deblock=1:0:0 / analyse=0x3:0x113 / me=umh / subme=10 / psy=1 / psy_rd=1.05:0.10 / mixed_ref=1 / me_range=48 / chroma_me=1 / trellis=2 / 8x8dct=1 / cqm=0 / deadzone=21,11 / fast_pskip=0 / chroma_qp_offset=-2 / threads=12 / lookahead_threads=1 / sliced_threads=0 / nr=0 / decimate=1 / interlaced=0 / bluray_compat=0 / constrained_intra=0 / bframes=6 / b_pyramid=2 / b_adapt=2 / b_bias=0 / direct=3 / weightb=1 / open_gop=0 / weightp=2 / keyint=250 / keyint_min=23 / scenecut=40 / intra_refresh=0 / rc=2pass / mbtree=0 / bitrate=12000 / ratetol=2.0 / qcomp=0.70 / qpmin=0 / qpmax=69 / qpstep=4 / cplxblur=20.0 / qblur=0.5 / ip_ratio=1.40 / pb_ratio=1.30 / aq=2:1.00
Language : English
Default : Yes
Forced : No
Audio #1
ID : 2
Format : DTS
Format/Info : Digital Theater Systems
Mode : 16
Format settings, Endianness : Big
Codec ID : A_DTS
Duration : 1h 36mn
Bit rate mode : Constant
Bit rate : 768 Kbps
Channel(s) : 6 channels
Channel positions : Front: L C R, Side: L R, LFE
Sampling rate : 48.0 KHz
Bit depth : 24 bits
Compression mode : Lossy
Stream size : 529 MiB (5%)
Language : Russian
Default : Yes
Forced : No
Audio #2
ID : 3
Format : DTS
Format/Info : Digital Theater Systems
Format profile : ES
Mode : 16
Format settings, Endianness : Big
Codec ID : A_DTS
Duration : 1h 36mn
Bit rate mode : Constant
Bit rate : 1 509 Kbps
Channel(s) : 6 channels
Channel positions : Front: L C R, Side: L R, LFE
Sampling rate : 48.0 KHz
Bit depth : 24 bits
Compression mode : Lossy
Stream size : 1.01 GiB (11%)
Language : English
Default : No
Forced : No
Text #1
ID : 4
Format : UTF-8
Codec ID : S_TEXT/UTF8
Codec ID/Info : UTF-8 Plain Text
Language : Russian
Default : No
Forced : No
Text #2
ID : 5
Format : UTF-8
Codec ID : S_TEXT/UTF8
Codec ID/Info : UTF-8 Plain Text
Language : English
Default : No
Forced : No
Text #3
ID : 6
Format : UTF-8
Codec ID : S_TEXT/UTF8
Codec ID/Info : UTF-8 Plain Text
Title : SDH
Language : English
Default : No
Forced : No
Menu
00:00:00.000 : en:Chapter 01
00:07:11.347 : en:Chapter 03
00:09:02.959 : en:Chapter 05
00:13:11.582 : en:Chapter 07
00:16:21.605 : en:Chapter 09
00:19:22.786 : en:Chapter 11
00:24:43.815 : en:Chapter 13
00:27:19.179 : en:Chapter 15
00:30:18.691 : en:Chapter 17
00:33:03.815 : en:Chapter 19
00:38:18.713 : en:Chapter 21
00:43:11.755 : en:Chapter 23
00:46:53.435 : en:Chapter 25
00:50:39.870 : en:Chapter 27
00:54:02.530 : en:Chapter 29
00:59:50.587 : en:Chapter 31
01:06:01.749 : en:Chapter 33
01:09:06.142 : en:Chapter 35
01:13:23.190 : en:Chapter 37
01:16:55.319 : en:Chapter 39
01:21:15.745 : en:Chapter 41
01:25:20.824 : en:Chapter 43
01:28:06.155 : en:Chapter 45
01:31:17.847 : en:Chapter 47
01:36:16.562 : en:Chapter 48
Скриншоты Перекачайте, замена субтитров.
Скачать

Скачать торрент!

Как скачивать? · Что такое торрент? · Рейтинг и ограничения

Сайт не распространяет и не хранит электронные версии произведений, а лишь предоставляет доступ к создаваемому пользователями каталогу ссылок на торрент-файлы, которые содержат только списки хеш-сумм

[Профиль] [ЛС]
Показать сообщения:    
Ответить на тему

Текущее время: Сегодня 00:12

Часовой пояс: GMT + 4



Вы не можете начинать темы
Вы не можете отвечать на сообщения
Вы не можете редактировать свои сообщения
Вы не можете удалять свои сообщения
Вы не можете голосовать в опросах
Вы не можете прикреплять файлы к сообщениям
Вы не можете скачивать файлы