Правонарушитель Морант / Жестокий Морант / Breaker\' Morant (Брюс Бересфорд / Bruce Beresford) [1980, Австралия, драма, военный, история, BDRemux 1080p] [Criterion Collection] AVO (Сергей Визгунов) + 2x Sub (Eng) + Original Eng + Commentary

Ответить на тему
 
Автор Сообщение

user ®

Стаж: 7 лет 7 месяцев

Сообщений: 20008

Пост Пост: #1 от 07-Дек-2015 03:33

[Цитировать]

Правонарушитель Морант / Жестокий Морант / Breaker' Morant
Страна: Австралия
Жанр: драма, военный, история
Год выпуска: 1980
Продолжительность: 01:47:18
Перевод: Авторский (одноголосый закадровый) Сергей Визгунов
Cубтитры: английские [Full, SDH]
Оригинальная аудиодорожка: английский
-
Режиссер: Брюс Бересфорд / Bruce Beresford
В ролях: Эдвард Вудворд, Джек Томпсон, Джон Уотерс, Брайан Браун, Чарльз ’Бад’ Тингуэлл, Теренс Донован, Винсент Болл, Рэй Мигер, Крис Хейвуд, Рассел Кифел
-
Описание: История австралийского лейтенанта во время Бурской войны, который предстает перед трибуналом и приговаривается к смертной казни за ведение войны против врага «необычным и нецивилизованным» образом.
КиноПоиск
Тип релиза: BDRemux 1080p
Контейнер: MKV
Видео: MPEG-4 AVC / NTSC 16:9 / 1920x1080 (1,85:1) / 30490 kbps / 23,976 fps / High@L4.1
Аудио 1: Russian / AC3 / 48 kHz / 2.0 Ch / 192 kbps / 16 bit / AVO / Сергей Визгунов
Аудио 2: English / LPCM Audio / 48 kHz / 1.0 Ch / 1152 kbps / 24-bit / Original
Аудио 3: English / AC3 / 48 kHz / 1.0 Ch / 192 kbps / 16 bit / Commentary
Формат субтитров: softsub (SRT)
Навигация по главам: есть

Сэмпл MediaInfo
Общее
Уникальный идентификатор : 199586783001673105961938936478817201532 (0x96270424F10C2BDDB9CDDB0F4D922D7C)
Полное имя : N:\Breaker' Morant.1980.BDRemux.1080p.CRITERION.mkv
Формат : Matroska
Версия формата : Version 4 / Version 2
Размер файла : 24,0 Гбайт
Продолжительность : 1 ч. 47 м.
Режим общего битрейта : Переменный
Общий поток : 32,0 Мбит/сек
Дата кодирования : UTC 2015-12-03 20:18:37
Программа кодирования : mkvmerge v8.6.1 ('Flying') 64bit
Библиотека кодирования : libebml v1.3.3 + libmatroska v1.4.4
DURATION : 01:43:50.191000000
NUMBER_OF_FRAMES : 1505
NUMBER_OF_BYTES : 59451
_STATISTICS_WRITING_APP : mkvmerge v8.6.1 ('Flying') 64bit
_STATISTICS_WRITING_DATE_UTC : 2015-12-03 20:18:37
_STATISTICS_TAGS : BPS DURATION NUMBER_OF_FRAMES NUMBER_OF_BYTES
Видео
Идентификатор : 1
Формат : AVC
Формат/Информация : Advanced Video Codec
Профиль формата : High@L4.1
Параметр CABAC формата : Да
Параметр ReFrames формата : 4 кадра
Идентификатор кодека : V_MPEG4/ISO/AVC
Продолжительность : 1 ч. 47 м.
Вид битрейта : Переменный
Максимальный битрейт : 37,0 Мбит/сек
Ширина : 1920 пикселей
Высота : 1080 пикселей
Соотношение сторон : 16:9
Режим частоты кадров : Постоянный
Частота кадров : 23,976 кадра/сек
Цветовое пространство : YUV
Субдискретизация насыщенности : 4:2:0
Битовая глубина : 8 бит
Тип развёртки : Прогрессивная
Язык : English
Default : Да
Forced : Нет
Аудио #1
Идентификатор : 2
Формат : AC-3
Формат/Информация : Audio Coding 3
Расширение режима : CM (complete main)
Параметр Endianness формата : Big
Идентификатор кодека : A_AC3
Продолжительность : 1 ч. 47 м.
Вид битрейта : Постоянный
Битрейт : 192 Кбит/сек
Каналы : 2 канала
Расположение каналов : Front: L R
Частота : 48,0 КГц
Метод сжатия : С потерями
Размер потока : 147 Мбайт (1%)
Заголовок : AVO / Сергей Визгунов
Язык : Russian
Default : Да
Forced : Нет
Аудио #2
Идентификатор : 3
Формат : PCM
Идентификатор кодека : A_PCM/INT/LIT
Продолжительность : 1 ч. 47 м.
Вид битрейта : Постоянный
Частота : 48,0 КГц
Битовая глубина : 24 бит
Заголовок : Original
Язык : English
Default : Нет
Forced : Нет
Аудио #3
Идентификатор : 4
Формат : AC-3
Формат/Информация : Audio Coding 3
Расширение режима : CM (complete main)
Параметр Endianness формата : Big
Идентификатор кодека : A_AC3
Продолжительность : 1 ч. 47 м.
Вид битрейта : Постоянный
Битрейт : 192 Кбит/сек
Каналы : 1 канал
Расположение каналов : Front: C
Частота : 48,0 КГц
Метод сжатия : С потерями
Размер потока : 147 Мбайт (1%)
Заголовок : Audio commentary from 2004 by director and coscreenwriter Bruce Beresford.
Язык : English
Default : Нет
Forced : Нет
Текст #1
Идентификатор : 5
Формат : UTF-8
Идентификатор кодека : S_TEXT/UTF8
Идентификатор кодека/Информация : UTF-8 Plain Text
Заголовок : Original
Язык : English
Default : Нет
Forced : Нет
Текст #2
Идентификатор : 6
Формат : UTF-8
Идентификатор кодека : S_TEXT/UTF8
Идентификатор кодека/Информация : UTF-8 Plain Text
Заголовок : Original / SDH
Язык : English
Default : Нет
Forced : Нет
Меню
00:00:00.000 : en:Full responsibility
00:03:22.619 : en:Captain Hunt
00:08:19.540 : en:Important Prosecution
00:10:37.595 : en:First-timer
00:13:37.775 : en:"The best in Australia"
00:16:33.534 : en:"Not guilty"
00:20:19.551 : en:Breaches of discpline
00:27:14.883 : en:Like a madman
00:35:04.560 : en:Contradicting the facts
00:36:55.421 : en:Rule 303
00:38:40.443 : en:The best witness
00:41:10.676 : en:No prisoners
00:47:42.317 : en:Memories
00:50:17.472 : en:Boer attack
00:53:52.646 : en:Fort Edwards executions
01:01:31.396 : en:Inadmissible evidence
01:06:47.420 : en:Missionary quandary
01:14:13.031 : en:Blurred truth
01:20:36.289 : en:Closing statement
01:26:41.738 : en:Sentenced
01:33:59.508 : en:"A bloody sham"
01:35:34.103 : en:Letters to loved ones
01:37:22.503 : en:"Shoot straight, you bastards!"
Скриншоты
Скачать

Скачать торрент!

Как скачивать? · Что такое торрент? · Рейтинг и ограничения

Сайт не распространяет и не хранит электронные версии произведений, а лишь предоставляет доступ к создаваемому пользователями каталогу ссылок на торрент-файлы, которые содержат только списки хеш-сумм

[Профиль] [ЛС]
Показать сообщения:    
Ответить на тему

Текущее время: Сегодня 22:32

Часовой пояс: GMT + 4



Вы не можете начинать темы
Вы не можете отвечать на сообщения
Вы не можете редактировать свои сообщения
Вы не можете удалять свои сообщения
Вы не можете голосовать в опросах
Вы не можете прикреплять файлы к сообщениям
Вы не можете скачивать файлы