Орбита Апокалипсиса / Earthfall (Стивен Дэниелс / Steven Daniels) [2015, США, Канада, фантастика, боевик, WEB-DL 720p] MVO (ТВ3) + Original Eng

Ответить на тему
 
Автор Сообщение

user ®

Стаж: 7 лет 7 месяцев

Сообщений: 20008

Пост Пост: #1 от 07-Дек-2015 03:33

[Цитировать]

Орбита Апокалипсиса / Earthfall
Страна: США, Канада
Студия: Cinetel Films
Жанр: фантастика, боевик
Год выпуска: 2015
Продолжительность: 01:28:49
Перевод: Профессиональный (многоголосый закадровый) ТВ3
Cубтитры: нет
Оригинальная аудиодорожка: английский
Режиссер: Стивен Дэниелс / Steven Daniels
В ролях: Прессли Кокер, Раффаэлло Дегруттола, Джефф Дусетте, Луи Ферриньо мл., Ивэн Гэмбл, Диана Хоппер, Джо Ландо, Бен Левин, Брендан МакКарти, Эндрю Элвис Миллер
Описание: Сбившаяся с оси планета мчится сквозь солнечную систему, действуя как межгалактический магнит, увлекающий Землю за собой. Метеоры уничтожают крупнейшие города. Огненные и ледяные штормы накрывают землю. Стихийным бедствиям нет числа. На фоне глобальной катастрофы Стив Леннон вместе с женой и дочерью становятся невольными свидетелями секретной правительственной ядерной миссии, которая либо вернет планету на свою орбиту, либо приведет Землю к апокалипсису.
Кинопоиск
Sample
Тип релиза: WEB-DL 720p
Контейнер: MKV
Видео: MPEG4 AVC Video, H264, 1280x716, 23.976 fps, 3925 kbps
Аудио: Russian (AC3, 2 ch, 192 kbps, 16 bits, 48.0 KHz) - MVO
Аудио 2: English (AC3, 6 ch, 384 kbps, 16 bits, 48.0 KHz) - оригинал

MediaInfo
General
Unique ID : 185750233384471644580213898370476975621 (0x8BBE31940B031B1E9E3598DA0660A605)
Complete name : L:\Earthfall 2015 WEB-DL 720p.mkv
Format : Matroska
Format version : Version 4 / Version 2
File size : 2.85 GiB
Duration : 1h 28mn
Overall bit rate : 4 593 Kbps
Encoded date : UTC 2015-12-05 20:52:05
Writing application : mkvmerge v6.1.0 ('Old Devil') built on Mar 2 2013 14:32:37
Writing library : libebml v1.3.0 + libmatroska v1.4.0
Video
ID : 1
Format : AVC
Format/Info : Advanced Video Codec
Format profile : High@L3.1
Format settings, CABAC : No
Format settings, ReFrames : 2 frames
Codec ID : V_MPEG4/ISO/AVC
Duration : 1h 28mn
Bit rate : 3 925 Kbps
Width : 1 280 pixels
Height : 716 pixels
Display aspect ratio : 16:9
Frame rate mode : Constant
Frame rate : 23.976 fps
Color space : YUV
Chroma subsampling : 4:2:0
Bit depth : 8 bits
Scan type : Progressive
Bits/(Pixel*Frame) : 0.179
Stream size : 2.44 GiB (85%)
Language : English
Default : Yes
Forced : No
Color primaries : BT.709
Transfer characteristics : BT.709
Matrix coefficients : BT.709
Audio #1
ID : 2
Format : AC-3
Format/Info : Audio Coding 3
Mode extension : CM (complete main)
Format settings, Endianness : Big
Codec ID : A_AC3
Duration : 1h 28mn
Bit rate mode : Constant
Bit rate : 192 Kbps
Channel count : 2 channels
Channel positions : Front: L R
Sampling rate : 48.0 KHz
Bit depth : 16 bits
Compression mode : Lossy
Stream size : 122 MiB (4%)
Language : Russian
Default : Yes
Forced : No
Audio #2
ID : 3
Format : AC-3
Format/Info : Audio Coding 3
Mode extension : CM (complete main)
Format settings, Endianness : Big
Codec ID : A_AC3
Duration : 1h 28mn
Bit rate mode : Constant
Bit rate : 384 Kbps
Channel count : 6 channels
Channel positions : Front: L C R, Side: L R, LFE
Sampling rate : 48.0 KHz
Bit depth : 16 bits
Compression mode : Lossy
Stream size : 244 MiB (8%)
Language : English
Default : No
Forced : No
Menu
00:00:00.000 : en:Main Titles
00:05:10.000 : en:Devastation
00:11:42.000 : en:Near Miss
00:19:26.000 : en:Safe Haven
00:28:00.000 : en:Operation S.A.F.E.
00:34:52.000 : en:Searching For Loved Ones
00:45:24.000 : en:Survivors
00:51:09.000 : en:Cold Storms
00:56:47.000 : en:Restricted Area
01:06:56.000 : en:Held Hostage
01:15:59.000 : en:"It's Gonna Work"
01:24:47.000 : en:End Credits
Скриншоты
Скачать

Скачать торрент!

Как скачивать? · Что такое торрент? · Рейтинг и ограничения

Сайт не распространяет и не хранит электронные версии произведений, а лишь предоставляет доступ к создаваемому пользователями каталогу ссылок на торрент-файлы, которые содержат только списки хеш-сумм

[Профиль] [ЛС]
Показать сообщения:    
Ответить на тему

Текущее время: Сегодня 08:41

Часовой пояс: GMT + 4



Вы не можете начинать темы
Вы не можете отвечать на сообщения
Вы не можете редактировать свои сообщения
Вы не можете удалять свои сообщения
Вы не можете голосовать в опросах
Вы не можете прикреплять файлы к сообщениям
Вы не можете скачивать файлы