Ледяной человек / Iceman (Фред Скепси / Fred Schepisi) [1984, США, фантастика, драма, WEB-DL 720p] MVO + Sub Eng + Original Eng

Ответить на тему
 
Автор Сообщение

user ®

Стаж: 7 лет 7 месяцев

Сообщений: 20008

Пост Пост: #1 от 07-Дек-2015 03:33

[Цитировать]

Ледяной человек / Iceman
Страна: США
Студия: Universal Pictures
Жанр: фантастика, драма
Год выпуска: 1984
Продолжительность: 01:40:40
Перевод: Профессиональный (многоголосый закадровый)
Cубтитры: английские
Оригинальная аудиодорожка: английский
Режиссер: Фред Скепси / Fred Schepisi
В ролях: Тимоти Хаттон, Линдси Краус, Джон Лоун, Йозеф Зоммер, Дэвид Стрэтэйрн, Филип Акин, Дэнни Гловер, Амелия Холл, Джеймс Толкан
Описание: Научная экспедиция обнаруживает тело доисторического человека, который, как выясняется в последствии, оказался живым. Это событие будоражит весь научный мир. Однако тщеславие некоторых ученых, пытающихся прославиться за счет невероятного открытия приобретает угрожающий характер. На защиту долгожителя встает один из молодых специалистов, тем самым, ставя под угрозу свою будущую карьеру…
Доп. информация: Русская дорожка 5.1 была дутой.
Кинопоиск
Sample
Тип релиза: WEB-DL 720p
Контейнер: MKV
Видео: MPEG4 AVC Video, H264, 1280x542, 23.976 fps, 4049 kbps
Аудио: Russian (AC3, 2 ch, 192 kbps, 16 bits, 48.0 KHz) - MVO
Аудио 2: English (AC3, 2 ch, 224 kbps, 16 bits, 48.0 KHz) - оригинал DVD
Аудио 3: English (AAC, 2 ch, 167 kbps, 16 bits, 48.0 KHz) - оригинал WEB-DL
Формат субтитров: softsub (SRT)

MediaInfo
General
Unique ID : 241768517487264075789790327541094961351 (0xB5E2EC38F1707B439DEE6E6FD74050C7)
Complete name : L:\Iceman 1984 WEB-DL 720p.mkv
Format : Matroska
Format version : Version 4 / Version 2
File size : 3.31 GiB
Duration : 1h 40mn
Overall bit rate : 4 712 Kbps
Encoded date : UTC 2015-12-05 20:37:11
Writing application : mkvmerge v6.1.0 ('Old Devil') built on Mar 2 2013 14:32:37
Writing library : libebml v1.3.0 + libmatroska v1.4.0
Video
ID : 1
Format : AVC
Format/Info : Advanced Video Codec
Format profile : Main@L3.1
Format settings, CABAC : No
Format settings, ReFrames : 2 frames
Codec ID : V_MPEG4/ISO/AVC
Duration : 1h 40mn
Width : 1 280 pixels
Height : 542 pixels
Display aspect ratio : 2.35:1
Frame rate mode : Constant
Frame rate : 23.976 fps
Color space : YUV
Chroma subsampling : 4:2:0
Bit depth : 8 bits
Scan type : Progressive
Language : English
Default : Yes
Forced : No
Color primaries : BT.709
Transfer characteristics : BT.709
Matrix coefficients : BT.709
Audio #1
ID : 2
Format : AC-3
Format/Info : Audio Coding 3
Mode extension : CM (complete main)
Format settings, Endianness : Big
Codec ID : A_AC3
Duration : 1h 40mn
Bit rate mode : Constant
Bit rate : 192 Kbps
Channel count : 2 channels
Channel positions : Front: L R
Sampling rate : 48.0 KHz
Bit depth : 16 bits
Compression mode : Lossy
Stream size : 138 MiB (4%)
Language : Russian
Default : Yes
Forced : No
Audio #2
ID : 3
Format : AC-3
Format/Info : Audio Coding 3
Mode extension : CM (complete main)
Format settings, Endianness : Big
Codec ID : A_AC3
Duration : 1h 40mn
Bit rate mode : Constant
Bit rate : 224 Kbps
Channel count : 2 channels
Channel positions : Front: L R
Sampling rate : 48.0 KHz
Bit depth : 16 bits
Compression mode : Lossy
Stream size : 161 MiB (5%)
Title : оригинал DVD
Language : English
Default : No
Forced : No
Audio #3
ID : 4
Format : AAC
Format/Info : Advanced Audio Codec
Format profile : LC
Codec ID : A_AAC
Duration : 1h 40mn
Channel count : 2 channels
Channel positions : Front: L R
Sampling rate : 48.0 KHz
Compression mode : Lossy
Title : оригинал WEB-DL
Language : English
Default : No
Forced : No
Text
ID : 5
Format : UTF-8
Codec ID : S_TEXT/UTF8
Codec ID/Info : UTF-8 Plain Text
Language : English
Default : No
Forced : No
Menu
00:00:00.000 : en:1
00:05:38.000 : en:2
00:09:42.000 : en:3
00:14:46.000 : en:4
00:21:14.000 : en:5
00:26:31.000 : en:6
00:29:13.000 : en:7
00:33:33.000 : en:8
00:40:58.000 : en:9
00:48:56.000 : en:10
00:56:10.000 : en:11
01:02:11.000 : en:12
01:08:26.000 : en:13
01:12:13.000 : en:14
01:16:18.000 : en:15
01:25:17.000 : en:16
01:31:12.000 : en:17
01:37:38.000 : en:18
Скриншоты
Скачать

Скачать торрент!

Как скачивать? · Что такое торрент? · Рейтинг и ограничения

Сайт не распространяет и не хранит электронные версии произведений, а лишь предоставляет доступ к создаваемому пользователями каталогу ссылок на торрент-файлы, которые содержат только списки хеш-сумм

[Профиль] [ЛС]
Показать сообщения:    
Ответить на тему

Текущее время: Сегодня 13:41

Часовой пояс: GMT + 4



Вы не можете начинать темы
Вы не можете отвечать на сообщения
Вы не можете редактировать свои сообщения
Вы не можете удалять свои сообщения
Вы не можете голосовать в опросах
Вы не можете прикреплять файлы к сообщениям
Вы не можете скачивать файлы