Зимняя кость / Winter's Bone (Дебра Граник / Debra Granik) [2010, США, триллер, драма, HDRip-AVC] DVO + original (eng)

Ответить на тему
 
Автор Сообщение

user ®

Стаж: 7 лет 7 месяцев

Сообщений: 20008

Пост Пост: #1 от 23-Дек-2010 22:20

[Цитировать]

Зимняя кость / Winter's Bone
Страна: США
Студия: Branson, Missouri
Жанр: триллер, драма
Год выпуска: 2010
Продолжительность: 01:40:12
Перевод: Профессиональный (двухголосый)
Субтитры: нет
Оригинальная аудиодорожка: Английский
Режиссер: Дебра Граник / Debra Granik
В ролях: Дженнифер Лоуренс, Джон Хоукс, Кевин Брезнахан, Дейл Дикки, Гаррет Диллахант, Шелли Ваггнер, Lauren Sweetser, Эшли Томпсон, Уильям Уайт, Кэйси Мак...
Описание: Главная героиня картины — девочка Ри из неблагополучной семьи; ее мать серьезно больна, а отец-наркоторговец сидит в тюрьме. В силу такого положения героиня и ее младшие брат и сестра еле-еле сводят концы с концами.
Вскоре Ри узнает об исчезновении недавно освободившегося отца, а местный шериф сообщает девушке, что если в ближайшее время тот не появится в суде и не заплатит взнос по закладной, то у нее и ее семьи отберут дом. Ри отправляется на поиски отца, который по слухам уже успел погибнуть в автокатастрофе. В попытках добиться своего девочке придется пройти через не самые благополучные социальные слои, в которых постоянно вертелся ее папаша.
Доп. информация: для удобства навигации фильм разбит на главы по 5 минут.

Бюджет: $2 000 000

Тип релиза: HDRip-AVC, источник: Winter's.Bone.2010.BluRay.1080p.DTS.x264-CHD
Контейнер: MKV
Видео: 1024x576 (16:9), 23.976 fps, XVID ~2277 kbps avg, 0.161 bit/pixel
Аудио : Русский 48 kHz, AC3, 6 ch, 384.00 kbps Constant
Аудио 2: Английский 48 kHz, AC3, 6 ch, 448.00 kbps Constant

MediaInfo

General
Complete name : Zimnyaja.kost.2010.P2.HDRip-AVC.mkv
Format : Matroska
File size : 2.18 GiB
Duration : 1h 40mn
Overall bit rate : 3 111 Kbps
Movie name : avproh
Encoded date : UTC 2010-10-21 15:08:01
Writing application : mkvmerge v4.1.1 ('Bouncin' Back') сборка от Jul 3 2010 22:54:08
Writing library : libebml v1.0.0 + libmatroska v1.0.0
Video
ID : 1
Format : AVC
Format/Info : Advanced Video Codec
Format profile : High@L4.1
Format settings, CABAC : Yes
Format settings, ReFrames : 11 frames
Codec ID : V_MPEG4/ISO/AVC
Duration : 1h 40mn
Bit rate : 2 277 Kbps
Width : 1 024 pixels
Height : 576 pixels
Display aspect ratio : 16:9
Frame rate : 23.976 fps
Color space : YUV
Chroma subsampling : 4:2:0
Bit depth : 8 bits
Scan type : Progressive
Bits/(Pixel*Frame) : 0.161
Stream size : 1.55 GiB (71%)
Writing library : x264 core 104 r1675 2484aa0
Encoding settings : cabac=1 / ref=11 / deblock=1:-2:-1 / analyse=0x3:0x113 / me=umh / subme=9 / psy=1 / psy_rd=1.00:0.10 / mixed_ref=1 / me_range=32 / chroma_me=1 / trellis=2 / 8x8dct=1 / cqm=0 / deadzone=21,11 / fast_pskip=1 / chroma_qp_offset=-3 / threads=9 / sliced_threads=0 / nr=0 / decimate=1 / interlaced=0 / constrained_intra=0 / bframes=10 / b_pyramid=2 / b_adapt=2 / b_bias=0 / direct=3 / weightb=1 / open_gop=0 / weightp=0 / keyint=250 / keyint_min=23 / scenecut=40 / intra_refresh=0 / rc_lookahead=80 / rc=2pass / mbtree=1 / bitrate=2277 / ratetol=1.0 / qcomp=0.60 / qpmin=10 / qpmax=51 / qpstep=4 / cplxblur=20.0 / qblur=0.5 / ip_ratio=1.40 / aq=2:0.90
Language : English
Audio #1
ID : 2
Format : AC-3
Format/Info : Audio Coding 3
Mode extension : CM (complete main)
Codec ID : A_AC3
Duration : 1h 40mn
Bit rate mode : Constant
Bit rate : 384 Kbps
Channel(s) : 6 channels
Channel positions : Front: L C R, Side: L R, LFE
Sampling rate : 48.0 KHz
Bit depth : 16 bits
Stream size : 275 MiB (12%)
Title : AC3 5.1 384 kbps
Language : Russian
Audio #2
ID : 3
Format : AC-3
Format/Info : Audio Coding 3
Mode extension : CM (complete main)
Codec ID : A_AC3
Duration : 1h 40mn
Bit rate mode : Constant
Bit rate : 448 Kbps
Channel(s) : 6 channels
Channel positions : Front: L C R, Side: L R, LFE
Sampling rate : 48.0 KHz
Bit depth : 16 bits
Stream size : 321 MiB (14%)
Title : AC3 5.1 448 kbps
Language : English
Menu #1
00:00:00.000 : ru:
Menu #2
00:05:00.000 : ru:
Menu #3
00:10:00.000 : ru:
Menu #4
00:15:00.000 : ru:
Menu #5
00:20:00.000 : ru:
Menu #6
00:25:00.000 : ru:
Menu #7
00:30:00.000 : ru:
Menu #8
00:35:00.000 : ru:
Menu #9
00:40:00.000 : ru:
Menu #10
00:45:00.000 : ru:
Menu #11
00:50:00.000 : ru:
Menu #12
00:55:00.000 : ru:
Menu #13
01:00:00.000 : ru:
Menu #14
01:05:00.000 : ru:
Menu #15
01:10:00.000 : ru:
Menu #16
01:15:00.000 : ru:
Menu #17
01:20:00.000 : ru:
Menu #18
01:25:00.000 : ru:
Menu #19
01:30:00.000 : ru:
Menu #20
01:35:00.000 : ru:

Скриншот с названием

Скриншоты

Скачать

Скачать торрент!

Как скачивать? · Что такое торрент? · Рейтинг и ограничения

Сайт не распространяет и не хранит электронные версии произведений, а лишь предоставляет доступ к создаваемому пользователями каталогу ссылок на торрент-файлы, которые содержат только списки хеш-сумм

[Профиль] [ЛС]
Показать сообщения:    
Ответить на тему

Текущее время: Сегодня 17:45

Часовой пояс: GMT + 4



Вы не можете начинать темы
Вы не можете отвечать на сообщения
Вы не можете редактировать свои сообщения
Вы не можете удалять свои сообщения
Вы не можете голосовать в опросах
Вы не можете прикреплять файлы к сообщениям
Вы не можете скачивать файлы