Темный лес 2 / Villmark 2 (Пол Эие / Pal ?ie) [2015, Норвегия, ужасы, DVDRip-AVC] Sub Rus + Original Nor

Ответить на тему
 
Автор Сообщение

user ®

Стаж: 7 лет 7 месяцев

Сообщений: 20008

Пост Пост: #1 от 07-Дек-2015 03:33

[Цитировать]

Темный лес 2 / Villmark 2
Страна: Норвегия
Жанр: ужасы
Год выпуска: 2015
Продолжительность: 01:29:58
Перевод: Субтитры (М.Васильев)
Cубтитры: русские
Оригинальная аудиодорожка: норвежский
Режиссер: Пол Эие / Pål Øie
В ролях: Андерс Баасмо Кристиансен, Эллен Доррит Петтерсен, Томас Норстрем, Торстейн Лэнинг, Мадс Петерсен
Описание: Одна маленькая компания, занимающаяся вывозом и утилизацией мусора, получает подряд на очистку старого, заброшенного здания в глухом лесу. Когда рабочие приезжают на место, выясняется, что в подвале здания кто-то прячется, и он совсем не рад непрошенным гостям.
Доп. информация: Спустя 12 лет, режиссер Пол Эие возвращается к своему самому успешному проекту (первый [url=http://***/forum/viewtopic.php?t=4216727]ТЕМНЫЙ ЛЕС[/url] появился в 2003). В итоге мы получаем шаблонный слэшер, который, однако, имеет колоссальную ценность для настоящих скандинавистов-фетишистов, ибо это
- Норвегия
- ласкающий слух норвежский язык
- великий Андерс Баасмо Кристиансен
- потрясающая Эллен Доррит Петтерсен
Фильм переведен по просьбе ВК группы СКАНДИНАВСКИЙ КАЛЕЙДОСКОП
Сэмпл
IMDB
КИНОПОИСК
Качество видео: DVDRip-AVC
Формат видео: MKV
Видео: 1800 Kbps 720x348@853x348 (2.451) 23 976 fps AVC
Аудио: 192 Kbps, 48.0 KHz, 16 bits, 2 ch, AC 3
Формат субтитров: softsub (SRT)
MediaInfo
General
Unique ID : 188970009531123832786893125149275726084 (0x8E2A4CCC741A7D7383E950A4AA942104)
Complete name : C:\Users\Владелец\Downloads\villmark.mkv
Format : Matroska
Format version : Version 2
File size : 1.25 GiB
Duration : 1h 29mn
Overall bit rate : 1 982 Kbps
Encoded date : UTC
Writing application : HandBrake 0.10.2 2015060900
Writing library : Lavf55.12.0
Video
ID : 1
Format : AVC
Format/Info : Advanced Video Codec
Format profile : High@L4.1
Format settings, CABAC : Yes
Format settings, ReFrames : 9 frames
Codec ID : V_MPEG4/ISO/AVC
Duration : 1h 29mn
Bit rate : 1 800 Kbps
Width : 720 pixels
Height : 348 pixels
Display aspect ratio : 2.451
Original display aspect ratio : 2.452
Frame rate mode : Constant
Frame rate : 23.976 fps
Color space : YUV
Chroma subsampling : 4:2:0
Bit depth : 8 bits
Scan type : Progressive
Bits/(Pixel*Frame) : 0.300
Stream size : 1.10 GiB (88%)
Writing library : x264 core 142 r2479 dd79a61
Encoding settings : cabac=1 / ref=9 / deblock=1:-3:-3 / analyse=0x3:0x133 / me=umh / subme=9 / psy=1 / psy_rd=1.00:0.00 / mixed_ref=1 / me_range=24 / chroma_me=1 / trellis=2 / 8x8dct=1 / cqm=0 / deadzone=21,11 / fast_pskip=0 / chroma_qp_offset=-2 / threads=6 / lookahead_threads=1 / sliced_threads=0 / nr=0 / decimate=1 / interlaced=0 / bluray_compat=0 / constrained_intra=0 / bframes=6 / b_pyramid=2 / b_adapt=2 / b_bias=0 / direct=3 / weightb=1 / open_gop=0 / weightp=2 / keyint=240 / keyint_min=24 / scenecut=40 / intra_refresh=0 / rc_lookahead=60 / rc=abr / mbtree=1 / bitrate=1800 / ratetol=1.0 / qcomp=0.60 / qpmin=0 / qpmax=69 / qpstep=4 / vbv_maxrate=62500 / vbv_bufsize=78125 / nal_hrd=none / filler=0 / ip_ratio=1.40 / aq=2:1.00
Default : Yes
Forced : No
Color primaries : BT.601 NTSC
Transfer characteristics : BT.709
Matrix coefficients : BT.601
Audio
ID : 2
Format : AC-3
Format/Info : Audio Coding 3
Mode extension : CM (complete main)
Format settings, Endianness : Big
Codec ID : A_AC3
Duration : 1h 29mn
Bit rate mode : Constant
Bit rate : 192 Kbps
Channel(s) : 2 channels
Channel positions : Front: L R
Sampling rate : 48.0 KHz
Bit depth : 16 bits
Compression mode : Lossy
Stream size : 124 MiB (10%)
Title : Stereo
Language : English
Default : Yes
Forced : No
Menu
00:00:00.000 : :Chapter 1
00:05:00.091 : :Chapter 2
00:10:00.099 : :Chapter 3
00:15:00.107 : :Chapter 4
00:20:00.115 : :Chapter 5
00:25:00.082 : :Chapter 6
00:30:00.090 : :Chapter 7
00:35:00.098 : :Chapter 8
00:40:00.106 : :Chapter 9
00:45:00.114 : :Chapter 10
00:50:00.080 : :Chapter 11
00:55:00.088 : :Chapter 12
01:00:00.096 : :Chapter 13
01:05:00.104 : :Chapter 14
01:10:00.112 : :Chapter 15
01:15:00.079 : :Chapter 16
01:20:00.087 : :Chapter 17
01:25:00.095 : :Chapter 18
Скриншот c названием фильма Скриншоты Титры
1
00:00:27,000 --> 00:00:32,000
ТЕМНЫЙ ЛЕС 2
2
00:01:40,380 --> 00:01:43,180
И на что
на этот раз подписались?
3
00:01:43,300 --> 00:01:46,421
На то, что
обязательно сделаем.
4
00:02:02,520 --> 00:02:04,133
Глядите.
5
00:02:05,707 --> 00:02:08,664
Как далеко рыбак забрался.
6
00:02:14,579 --> 00:02:17,996
Надо было
удочки захватить.
7
00:02:20,224 --> 00:02:25,254
Дамы и господа,
а вот и санаторий.
8
00:02:28,557 --> 00:02:30,938
Ни фига себе...
9
00:02:34,202 --> 00:02:37,543
Был построен
для лечения туберкулеза.
10
00:02:37,659 --> 00:02:41,268
И это хотят
разрушить?
11
00:02:41,384 --> 00:02:42,574
Боже ...
12
00:02:45,416 --> 00:02:49,602
Тут пройдет шоссе,
здание мешает.
13
00:03:08,074 --> 00:03:09,879
Сюда...
14
00:03:09,994 --> 00:03:12,567
- Это все?
- Ага.
15
00:03:21,284 --> 00:03:23,665
- Большое помещение.
- Да.
16
00:03:25,355 --> 00:03:28,350
6270 квадратным метров.
17
00:03:29,963 --> 00:03:31,845
У нас 3 дня.
18
00:03:32,920 --> 00:03:35,148
Да это
целый замок.
19
00:03:38,412 --> 00:03:42,483
- Собираешься в ней спать?
- У меня дома такая же.
20
00:03:43,673 --> 00:03:46,592
Вы это видели?
21
00:03:48,550 --> 00:03:52,314
- Тебе помочь?
- Нет.
22
00:04:04,411 --> 00:04:06,216
Работа не ждет.
23
00:04:06,331 --> 00:04:10,133
У нас 3 дня,
чтобы обследовать 312 комнат.
24
00:04:10,248 --> 00:04:14,587
И 4 километра труб,
проходящих по всему зданию.
25
00:04:14,703 --> 00:04:17,276
Франк, займешься
врачебными кабинетами.
26
00:04:17,391 --> 00:04:21,193
Надо проверить,
нет ли где загрязнения ртутью.
Скачать

Скачать торрент!

Как скачивать? · Что такое торрент? · Рейтинг и ограничения

Сайт не распространяет и не хранит электронные версии произведений, а лишь предоставляет доступ к создаваемому пользователями каталогу ссылок на торрент-файлы, которые содержат только списки хеш-сумм

[Профиль] [ЛС]

fuffy

Стаж: 11 месяцев 23 дня

Сообщений: 3

Пост Пост: #2 от 10-Дек-2015 07:16 (спустя 3 дня)

[Цитировать]

thanks for sharing! so many resources!~
[Профиль] [ЛС]
Показать сообщения:    
Ответить на тему

Текущее время: Сегодня 06:22

Часовой пояс: GMT + 4



Вы не можете начинать темы
Вы не можете отвечать на сообщения
Вы не можете редактировать свои сообщения
Вы не можете удалять свои сообщения
Вы не можете голосовать в опросах
Вы не можете прикреплять файлы к сообщениям
Вы не можете скачивать файлы