Рики и Флэш / Ricki and the Flash (Джонатан Демме / Jonathan Demme) [2015, США, драма, комедия, музыка, BDRip-AVC] Dub + Original (Eng) + Sub (Rus, Ukr, Eng)

Ответить на тему
 
Автор Сообщение

user ®

Стаж: 7 лет 7 месяцев

Сообщений: 20008

Пост Пост: #1 от 07-Дек-2015 03:33

[Цитировать]

Рики и Флэш
Ricki and the Flash
«Когда мама младше дочки»

Страна: США
Жанр: драма, комедия, музыка
Год выпуска: 2015
Продолжительность: 01:41:39
Перевод: Профессиональный (полное дублирование) [Лицензия BD CEE]
Cубтитры: русские (forced, full), украинские (forced, full), английские (full, SDH, SDH Colored)
Оригинальная аудиодорожка: Английский
Режиссер: Джонатан Демме / Jonathan Demme
В ролях: Мэрил Стрип, Мэми Гаммер, Кевин Клайн, Одра МакДональд, Себастьян Стэн, Рик Спрингфилд, Рик Росас, Джо Витале, Берни Уоррелл, Бен Платт, Питер С. Демме, Джим Рош
Описание:
История экстравагантной творческой личности, которая неожиданно возвращается в дом к своему бывшему мужу спустя много лет жизни вдали от него и детей. Релиз:
Автор рипа: Stalker oK
Сэмпл
Качество видео: BDRip-AVC [HDCLUB / Blu-ray Disc / 1080p]
Формат видео: MKV
Видео кодек: AVC
Аудио кодек: AC3
Видео: 2182 Кбит/сек, 1108*464 (2,35:1), в 23,976 кадр/сек, AVC
Аудио #1: Russian, 448 Кбит/сек, 48,0 КГц, 16 бит, 6 канала(ов), AC-3
Аудио #2: English, 448 Кбит/сек, 48,0 КГц, 16 бит, 6 канала(ов), AC-3
Навигация по главам: есть

MediaInfo
Общее
Уникальный идентификатор : 231765237802099637548133405186137859537 (0xAE5C5C74A946E755972B461FF42125D1)
Полное имя : M:\Rips\Ricki and the Flash\Ricki.and.the.Flash.2015.BDRip-AVC.Dub.2.18Gb.stalkerok.new-team.mkv
Формат : Matroska
Размер файла : 2,18 Гбайт
Продолжительность : 1 ч. 41 м.
Общий поток : 3075 Кбит/сек
Название фильма : Ricki and the Flash (2015) (New-Team) (Rip by Stalker oK)
Дата кодирования : UTC 2015-12-06 17:52:32
Программа кодирования : mkvmerge v7.9.0 ('Birds') 64bit
Библиотека кодирования : libebml v1.3.1 + libmatroska v1.4.2
Видео
Идентификатор : 1
Формат : AVC
Формат/Информация : Advanced Video Codec
Профиль формата : High@L4.1
Параметр CABAC формата : Да
Параметр ReFrames формата : 13 кадры
Идентификатор кодека : V_MPEG4/ISO/AVC
Продолжительность : 1 ч. 41 м.
Битрейт : 2182 Кбит/сек
Ширина : 1108 пикс.
Высота : 464 пикс.
Соотношение сторон : 2,35:1
Частота кадров : 23,976 кадр/сек
Цветовое пространство : YUV
Подвыборка цветности : 4:2:0
Битовая глубина : 8 бит
Тип развёртки : Прогрессивная
Бит/(Пиксели*Кадры) : 0.177
Размер потока : 1,50 Гбайт (69%)
Заголовок : Ricki and the Flash (2015) (New-Team) (Rip by Stalker oK)
Библиотека кодирования : x264 core 146 r2538kMod 121396c
Настройки программы : cabac=1 / ref=13 / deblock=1:-3:-3 / analyse=0x3:0x133 / me=umh / subme=11 / psy=1 / fade_compensate=0.00 / psy_rd=1.00:0.10 / mixed_ref=1 / me_range=48 / chroma_me=1 / trellis=2 / 8x8dct=1 / cqm=0 / deadzone=21,11 / fast_pskip=0 / chroma_qp_offset=-3 / threads=12 / lookahead_threads=3 / sliced_threads=0 / nr=0 / decimate=0 / interlaced=0 / bluray_compat=0 / constrained_intra=0 / fgo=0 / bframes=14 / b_pyramid=2 / b_adapt=2 / b_bias=0 / direct=3 / weightb=1 / open_gop=0 / weightp=2 / keyint=240 / keyint_min=23 / scenecut=40 / intra_refresh=0 / rc_lookahead=60 / rc=2pass / mbtree=0 / bitrate=2182 / ratetol=1.0 / qcomp=0.70 / qpmin=0 / qpmax=69 / qpstep=4 / cplxblur=20.0 / qblur=0.5 / vbv_maxrate=50000 / vbv_bufsize=62500 / nal_hrd=none / filler=0 / ip_ratio=1.40 / pb_ratio=1.30 / aq=3:0.87
Аудио #1
Идентификатор : 2
Формат : AC-3
Формат/Информация : Audio Coding 3
Расширение режима : CM (complete main)
Идентификатор кодека : A_AC3
Продолжительность : 1 ч. 41 м.
Вид битрейта : Постоянный
Битрейт : 448 Кбит/сек
Канал(ы) : 6 канала(ов)
Расположение каналов : Front: L C R, Side: L R, LFE
Частота : 48,0 КГц
Битовая глубина : 16 бит
Метод сжатия : С потерями
Размер потока : 326 Мбайт (15%)
Язык : Russian
Аудио #2
Идентификатор : 3
Формат : AC-3
Формат/Информация : Audio Coding 3
Расширение режима : CM (complete main)
Идентификатор кодека : A_AC3
Продолжительность : 1 ч. 41 м.
Вид битрейта : Постоянный
Битрейт : 448 Кбит/сек
Канал(ы) : 6 канала(ов)
Расположение каналов : Front: L C R, Side: L R, LFE
Частота : 48,0 КГц
Битовая глубина : 16 бит
Метод сжатия : С потерями
Размер потока : 326 Мбайт (15%)
Язык : English
Текст #1
Идентификатор : 4
Формат : UTF-8
Идентификатор кодека : S_TEXT/UTF8
Идентификатор кодека/Информация : UTF-8 Plain Text
Заголовок : forced
Язык : Russian
Текст #2
Идентификатор : 5
Формат : UTF-8
Идентификатор кодека : S_TEXT/UTF8
Идентификатор кодека/Информация : UTF-8 Plain Text
Заголовок : full
Язык : Russian
Текст #3
Идентификатор : 6
Формат : UTF-8
Идентификатор кодека : S_TEXT/UTF8
Идентификатор кодека/Информация : UTF-8 Plain Text
Заголовок : forced
Язык : Ukrainian
Текст #4
Идентификатор : 7
Формат : UTF-8
Идентификатор кодека : S_TEXT/UTF8
Идентификатор кодека/Информация : UTF-8 Plain Text
Заголовок : full
Язык : Ukrainian
Текст #5
Идентификатор : 8
Формат : UTF-8
Идентификатор кодека : S_TEXT/UTF8
Идентификатор кодека/Информация : UTF-8 Plain Text
Заголовок : full
Язык : English
Текст #6
Идентификатор : 9
Формат : UTF-8
Идентификатор кодека : S_TEXT/UTF8
Идентификатор кодека/Информация : UTF-8 Plain Text
Заголовок : SDH
Язык : English
Текст #7
Идентификатор : 10
Формат : UTF-8
Идентификатор кодека : S_TEXT/UTF8
Идентификатор кодека/Информация : UTF-8 Plain Text
Заголовок : SDH Colored
Язык : English
Меню
00:00:00.000 : en:Chapter 1
00:07:27.864 : en:Chapter 2
00:12:49.185 : en:Chapter 3
00:19:04.309 : en:Chapter 4
00:24:38.727 : en:Chapter 5
00:28:08.228 : en:Chapter 6
00:34:20.224 : en:Chapter 7
00:41:59.391 : en:Chapter 8
00:45:36.525 : en:Chapter 9
00:49:36.431 : en:Chapter 10
00:56:05.403 : en:Chapter 11
01:03:27.929 : en:Chapter 12
01:08:03.662 : en:Chapter 13
01:18:05.263 : en:Chapter 14
01:23:02.268 : en:Chapter 15
01:30:18.496 : en:Chapter 16
Скриншоты
Скачать

Скачать торрент!

Как скачивать? · Что такое торрент? · Рейтинг и ограничения

Сайт не распространяет и не хранит электронные версии произведений, а лишь предоставляет доступ к создаваемому пользователями каталогу ссылок на торрент-файлы, которые содержат только списки хеш-сумм

[Профиль] [ЛС]
Показать сообщения:    
Ответить на тему

Текущее время: Сегодня 10:03

Часовой пояс: GMT + 4



Вы не можете начинать темы
Вы не можете отвечать на сообщения
Вы не можете редактировать свои сообщения
Вы не можете удалять свои сообщения
Вы не можете голосовать в опросах
Вы не можете прикреплять файлы к сообщениям
Вы не можете скачивать файлы