Солнечный удар (Никита Михалков) [2014, Росссия, драма, WEB-DL 720p] + Original Rus

Ответить на тему
 
Автор Сообщение

user ®

Стаж: 7 лет 7 месяцев

Сообщений: 20008

Пост Пост: #1 от 05-Дек-2015 23:42

[Цитировать]

Солнечный удар
Страна: Росссия
Студия: Тритэ
Жанр: Драма
Год выпуска: 2014
Продолжительность: 03:00:12
Перевод: Не требуется
Cубтитры: нет
Оригинальная аудиодорожка: русский
Режиссер: Никита Михалков
В ролях: Мартиньш Калита, Виктория Соловьева, Сергей Серов, Алёна Спивак-Бычкова, Наталья Суркова, Денис Васильев, Ксения Попович, Олег Граф, Вадим Головко, Андрей Попович
Описание: «Солнечный удар» – попытка осмысления режиссером не только философского подтекста бунинской прозы, но и закономерностей развития русской истории. Тем не менее, концептуальным стержнем картины становится взаимосвязь личностного и общенационального греха, погибельный отзвук ошибок прошлого в настоящем, роль мечтательности, лжи и самообольщения в процессе падения человека и страны в целом.
Сэмпл
Тип релиза: WEB-DL 720p
Контейнер: MKV
Видео: AVC, 1280х536 (2,40:1), 24,000 кадров/сек, 3889 кбит/сек
Аудио: AC-3, 48,0 КГц, 6 каналов, 384 кбит/сек
MediaInfo
Видео
Идентификатор : 1
Формат : AVC
Формат/Информация : Advanced Video Codec
Профиль формата : Main@L3.1
Параметр CABAC формата : Нет
Параметр ReFrames формата : 2 кадра
Идентификатор кодека : V_MPEG4/ISO/AVC
Продолжительность : 3 ч. 0 м.
Битрейт : 3889 Кбит/сек
Ширина : 1280 пикселей
Высота : 536 пикселей
Соотношение сторон : 2,40:1
Режим частоты кадров : Постоянный
Частота кадров : 24,000 кадра/сек
Цветовое пространство : YUV
Субдискретизация насыщенности : 4:2:0
Битовая глубина : 8 бит
Тип развёртки : Прогрессивная
Бит/(Пиксели*Кадры) : 0.236
Размер потока : 4,90 Гбайт (89%)
Язык : English
Default : Да
Forced : Нет
Цветовой диапазон : Limited
Основные цвета : BT.709
Характеристики трансфера : BT.709
Коэффициенты матрицы : BT.709
Аудио
Идентификатор : 2
Формат : AC-3
Формат/Информация : Audio Coding 3
Расширение режима : CM (complete main)
Параметр Endianness формата : Big
Идентификатор кодека : A_AC3
Продолжительность : 3 ч. 0 м.
Вид битрейта : Постоянный
Битрейт : 384 Кбит/сек
Каналы : 6 каналов
Расположение каналов : Front: L C R, Side: L R, LFE
Частота : 48,0 КГц
Метод сжатия : С потерями
Размер потока : 495 Мбайт (9%)
Язык : Russian
Default : Да
Forced : Нет
Скриншоты
Скачать

Скачать торрент!

Как скачивать? · Что такое торрент? · Рейтинг и ограничения

Сайт не распространяет и не хранит электронные версии произведений, а лишь предоставляет доступ к создаваемому пользователями каталогу ссылок на торрент-файлы, которые содержат только списки хеш-сумм

[Профиль] [ЛС]
Показать сообщения:    
Ответить на тему

Текущее время: Сегодня 14:43

Часовой пояс: GMT + 4



Вы не можете начинать темы
Вы не можете отвечать на сообщения
Вы не можете редактировать свои сообщения
Вы не можете удалять свои сообщения
Вы не можете голосовать в опросах
Вы не можете прикреплять файлы к сообщениям
Вы не можете скачивать файлы