Виктория / Victoria / Eins Zwei Fünf Acht (Себастьян Шиппер / Sebastian Schipper) [2015, Германия, Криминальная драма, HDRip] MVO + Original Ger

Ответить на тему
 
Автор Сообщение

user ®

Стаж: 7 лет 7 месяцев

Сообщений: 20008

Пост Пост: #1 от 05-Дек-2015 23:42

[Цитировать]

Виктория / Victoria / Eins Zwei Fünf Acht
Страна: Германия
Жанр: Криминальная драма
Год выпуска: 2015
Продолжительность: 02:18:38
Перевод: Профессиональный (многоголосый закадровый)
Cубтитры: отсутствуют
Оригинальная аудиодорожка: немецкий
Режиссёр: Себастьян Шиппер / Sebastian Schipper
Актёры: Лайа Коста, Фредерик Лау, Франц Роговски, Бурак Айджит, Макс Мауфф, Андре Хеннике, Адольфо Ассор, и др.
Краткая аннотация: Девушка из Испании Виктория - с явными признаками задержки психического развития, тупо прожигает жизнь в ночных клубах Берлина... Однажды, в очередной раз оторвавшись по полной, и в изнеможении на автопилоте покидая ночной клуб, она случайно познакомилась с четырьмя местными крутыми парнями - Зонне, Боксером, Блинкером и Фусом. Они предлагают показать ей ночной Берлин, и она не раздумывая соглашается... В процессе ознакомления с ночным Берлином, у Виктории возникает любовь с первого раза к одному из них. Потеряв голову от любви в предрассветной мгле, Виктория не замечает, как становится соучастницей славных дел крутых парней...
Оказалось, что крутые парни, на самом деле шпана из подворотни, мелко-уголовная дешёвая блатата...

Качество видео: HDRip
Формат видео: AVI
Video: 720x304 (2.37:1), 23.976 fps, XviD build 73 ~1801 kbps avg, 0.34 bit/pixel
Audio #1: 48 kHz, AC3 Dolby Digital, 2/0 (L,R) ch, ~224 kbps
Audio #2: 48 kHz, AC3 Dolby Digital, 2/0 (L,R) ch, ~224 kbps
AviInfo
File: Victoria_2015_HDRip_[***].aviFilesize: 2237.21 Mb ( 2 345 879 552 bytes )Play length: 02:18:38.485 (199444 frames)Subtitles: Not PresentVideo: 720x304 (2.37:1), 23.976 fps, XviD build 73 ~1801 kbps avg, 0.34 bit/pixelAudio #1: 48 kHz, AC3 Dolby Digital, 2/0 (L,R) ch, ~224 kbpsAudio #2: 48 kHz, AC3 Dolby Digital, 2/0 (L,R) ch, ~224 kbps
MediaInfo
ОбщееПолное имя : S:\Victoria_2015_HDRip_[***].aviФормат : AVIФормат/Информация : Audio Video InterleaveПрофиль формата : OpenDMLРазмер файла : 2,18 ГбайтПродолжительность : 2 ч. 18 м.Общий поток : 2256 Кбит/секПрограмма кодирования : VirtualDubModRus 1.5.10.2 (build 2542/release)Библиотека кодирования : VirtualDubMod build 2542/release
ВидеоИдентификатор : 0Формат : MPEG-4 VisualПрофиль формата : Advanced Simple@L5Параметр BVOP формата : 1Параметр QPel формата : НетПараметр GMC формата : Без точки переходаПараметр матрицы формата : ВыборочнаяИдентификатор кодека : DX50Идентификатор кодека/Подсказка : DivX 5Продолжительность : 2 ч. 18 м.Битрейт : 1790 Кбит/секШирина : 720 пикселейВысота : 304 пикселяСоотношение сторон : 2,35:1Частота кадров : 23,976 кадра/секЦветовое пространство : YUVСубдискретизация насыщенности : 4:2:0Битовая глубина : 8 битТип развёртки : ПрогрессивнаяМетод сжатия : С потерямиБит/(Пиксели*Кадры) : 0.341Размер потока : 1,73 Гбайт (79%)Библиотека кодирования : XviD 73
Аудио #1Идентификатор : 1Формат : AC-3Формат/Информация : Audio Coding 3Расширение режима : CM (complete main)Параметр Endianness формата : BigИдентификатор кодека : 2000Продолжительность : 2 ч. 18 м.Вид битрейта : ПостоянныйБитрейт : 224 Кбит/секКаналы : 2 каналаРасположение каналов : Front: L RЧастота : 48,0 КГцБитовая глубина : 16 битМетод сжатия : С потерямиРазмер потока : 222 Мбайт (10%)Выравнивание : Разделение по промежуткамПродолжительность промежутка : 42 мс. (1,00 видеокадр)Время предзагрузки промежутка : 500 мс.
Аудио #2Идентификатор : 2Формат : AC-3Формат/Информация : Audio Coding 3Расширение режима : CM (complete main)Параметр Endianness формата : BigИдентификатор кодека : 2000Продолжительность : 2 ч. 18 м.Вид битрейта : ПостоянныйБитрейт : 224 Кбит/секКаналы : 2 каналаРасположение каналов : Front: L RЧастота : 48,0 КГцБитовая глубина : 16 битМетод сжатия : С потерямиРазмер потока : 222 Мбайт (10%)Выравнивание : Разделение по промежуткамПродолжительность промежутка : 42 мс. (1,00 видеокадр)Время предзагрузки промежутка : 500 мс.
Скриншот c названием фильма Скриншоты Время раздачи - по возможности.
Скачать

Скачать торрент!

Как скачивать? · Что такое торрент? · Рейтинг и ограничения

Сайт не распространяет и не хранит электронные версии произведений, а лишь предоставляет доступ к создаваемому пользователями каталогу ссылок на торрент-файлы, которые содержат только списки хеш-сумм

[Профиль] [ЛС]
Показать сообщения:    
Ответить на тему

Текущее время: Сегодня 13:38

Часовой пояс: GMT + 4



Вы не можете начинать темы
Вы не можете отвечать на сообщения
Вы не можете редактировать свои сообщения
Вы не можете удалять свои сообщения
Вы не можете голосовать в опросах
Вы не можете прикреплять файлы к сообщениям
Вы не можете скачивать файлы