Ненастоящий вампир / Liar, Liar, Vampire (Винс Марселло / Vince Marcello) [2015, США, Комедия, семейный, HDRip-AVC] DVO (R.G. TheAngelOfDeath & SweetySacrifice) + Original Eng

Ответить на тему
 
Автор Сообщение

user ®

Стаж: 7 лет 7 месяцев

Сообщений: 20008

Пост Пост: #1 от 04-Дек-2015 04:24

[Цитировать]

Ненастоящий вампир / Liar, Liar, Vampire
Страна: США
Жанр: Комедия, семейный
Год выпуска: 2015
Продолжительность: 01:07:57
Перевод: Любительский (двухголосый закадровый) R.G. TheAngelOfDeath & SweetySacrifice
Cубтитры: нет
Оригинальная аудиодорожка: английский
Режиссер: Винс Марселло / Vince Marcello
В ролях: Брэк Бэссинджер, Тиера Сковбай, Рахарт Адамс, Сара Грэй, Оливия Райан Штерн,Алекс Захара,Тай Вуд, Сэмюэл Патрик Чу, Ларисса Альбукерке, Полин Иган
Описание: Главный герой - Дэвис, с виду вроде вполне обычный парень, который всегда старается оставаться в тени и не привлекать внимания к своей скромной персоне. Но парню это не к лицу и Дэвис решает исправить cитуацию.
Однако наш герой решил пойти на хитрость, а точнее - соврать всем, что он вампир. Парень подумал, что такой персонаж будет пользоваться популярностью, ведь фильмы про вампиров смотрят все. И он не прогадал. Популярность Дэвиса очень быстро разнеслась по всей школе и уже скоро познакомиться с Дэвисом решает некто по имени Кэмерон, который долгое время занимается изучением вампиров. Он очень быстро раскусывает обман парня, но решает ему подыграть.
Но раскроется в конце концов обман Дэвиса и узнают остальные то, что он не настоящий вампир?

Качество видео: HDRip-AVC
Формат видео: MKV
Видео: AVC, 1280 x 720, 3263 Кбит/сек, 23.976 fps
Аудио Russian: AC-3, 192 Кбит/сек, 2 ch, 48,0 КГц R.G. TheAngelOfDeath & SweetySacrifice
Аудио English: AC-3, 192 Кбит/сек, 2 ch, 48,0 КГц
MediaInfo
Полное имя : Liar.Liar.Vampire.Ненастоящий Вампир_TheAngelOfdeath&SweetySacrifice _Rus.mkv
Формат : Matroska
Версия формата : Version 4 / Version 2
Размер файла : 1,77 Гбайт
Продолжительность : 1 ч. 7 м.
Режим общего битрейта : Переменный
Общий поток : 3721 Кбит/сек
Дата кодирования : UTC 2015-12-03 13:41:56
Программа кодирования : mkvmerge v7.2.0 ('On Every Street') 32bit built on Sep 13 2014 15:42:11
Библиотека кодирования : libebml v1.3.0 + libmatroska v1.4.1
DURATION : 01:07:57.792000000
NUMBER_OF_FRAMES : 127431
NUMBER_OF_BYTES : 97867008
_STATISTICS_WRITING_APP : mkvmerge v7.2.0 ('On Every Street') 32bit built on Sep 13 2014 15:42:11
_STATISTICS_WRITING_DATE_UTC : 2015-12-03 13:41:56
_STATISTICS_TAGS : BPS DURATION NUMBER_OF_FRAMES NUMBER_OF_BYTES
Видео
Идентификатор : 1
Формат : AVC
Формат/Информация : Advanced Video Codec
Профиль формата : Main@L3.2
Параметр CABAC формата : Да
Параметр ReFrames формата : 4 кадра
Идентификатор кодека : V_MPEG4/ISO/AVC
Продолжительность : 1 ч. 7 м.
Вид битрейта : Переменный
Битрейт : 3263 Кбит/сек
Максимальный битрейт : 6808 Кбит/сек
Ширина : 1280 пикселей
Высота : 720 пикселей
Соотношение сторон : 16:9
Режим частоты кадров : Постоянный
Частота кадров : 23,976 кадра/сек
Цветовое пространство : YUV
Субдискретизация насыщенности : 4:2:0
Битовая глубина : 8 бит
Тип развёртки : Прогрессивная
Бит/(Пиксели*Кадры) : 0.148
Размер потока : 1,55 Гбайт (88%)
Default : Да
Forced : Нет
Аудио #1
Идентификатор : 2
Формат : AC-3
Формат/Информация : Audio Coding 3
Расширение режима : CM (complete main)
Параметр Endianness формата : Big
Идентификатор кодека : A_AC3
Продолжительность : 1 ч. 7 м.
Вид битрейта : Постоянный
Битрейт : 192 Кбит/сек
Каналы : 2 канала
Расположение каналов : Front: L R
Частота : 48,0 КГц
Битовая глубина : 16 бит
Метод сжатия : С потерями
Задержка видео : -42 мс.
Размер потока : 93,3 Мбайт (5%)
Заголовок : Russian
Язык : Russian
Default : Да
Forced : Нет
Аудио #2
Идентификатор : 3
Формат : AC-3
Формат/Информация : Audio Coding 3
Расширение режима : CM (complete main)
Параметр Endianness формата : Big
Идентификатор кодека : A_AC3
Продолжительность : 1 ч. 7 м.
Вид битрейта : Постоянный
Битрейт : 192 Кбит/сек
Каналы : 2 канала
Расположение каналов : Front: L R
Частота : 48,0 КГц
Битовая глубина : 16 бит
Метод сжатия : С потерями
Задержка видео : -42 мс.
Размер потока : 93,3 Мбайт (5%)
Заголовок : English
Язык : English
Default : Нет
Forced : Нет
Скриншот c названием фильма Скриншоты
Скачать

Скачать торрент!

Как скачивать? · Что такое торрент? · Рейтинг и ограничения

Сайт не распространяет и не хранит электронные версии произведений, а лишь предоставляет доступ к создаваемому пользователями каталогу ссылок на торрент-файлы, которые содержат только списки хеш-сумм

[Профиль] [ЛС]
Показать сообщения:    
Ответить на тему

Текущее время: Сегодня 04:50

Часовой пояс: GMT + 4



Вы не можете начинать темы
Вы не можете отвечать на сообщения
Вы не можете редактировать свои сообщения
Вы не можете удалять свои сообщения
Вы не можете голосовать в опросах
Вы не можете прикреплять файлы к сообщениям
Вы не можете скачивать файлы