Мандарины / Mandariinid / Tangerines (Заза Урушадзе / Zaza Urushadze) [2013, Эстония, Грузия, драма, военный, BDRip 720p] Sub Rus + Original (Est, Rus)

Ответить на тему
 
Автор Сообщение

user ®

Стаж: 7 лет 7 месяцев

Сообщений: 20008

Пост Пост: #1 от 04-Дек-2015 01:18

[Цитировать]

Мандарины | Mandariinid
Tangerines
- Страна: Эстония, Грузия
Жанр: драма, военный
Год выпуска: 2013
Продолжительность: 01:22:59
Оригинальная аудиодорожка: русская и эстонская речь, на последнюю перевод субтитрами
Cубтитры: русские
Режиссер: Заза Урушадзе / Zaza Urushadze
В ролях:
Лембит Ульфсак | Lembit Ulfsak
Георгий Накашидзе, Элмо Нюганен, Миша Месхи, Райво Трасс, Зура Бегалишвили, Давид Хахидзе, Джано Изория, Гия Гогишвили, Вамех Янгидзе-Описание1992 год, Абхазия. Древнее эстонское село, расположенное в живописном месте между горами и морем, опустело - эстонцы вернулись на свою историческую родину. Остались только хозяин товарного цеха Иво, его сосед, владелец мандариновой плантации Маргус и местный доктор Юхан, который уже готов покинуть селение. Маргус также собирается уехать в Эстонию, но лишь после того, как будет собран урожай мандаринов. Война доходит до села, происходит боевое столкновение между грузинами и абхазцами. После боя Иво и Маргус находят одного оставшегося в живых чеченского наёмника по имени Ахмед, который воюет на абхазской стороне. Иво забирает Ахмеда к себе домой, чтобы его вылечить. Ночью, хороня погибших, Маргус обнаруживает, что, несмотря на тяжелое ранение, в бою выжил и один грузин - молодой парень Ника. Его тоже относят в дом Иво. Так под одной крышей оказываются бойцы противоборствующих сторон...-Сэмпл

IMDb: 8.4 (13 379)
Номинации
Оскар, 2015 год
Лучший фильм на иностранном языке
Золотой глобус, 2015 год
Лучший фильм на иностранном языке

Качество видео: BDRip 720p [url=http://***/forum/viewtopic.php?t=5117600]Blu-ray disc (custom)[/url]
Формат видео: MKV
Видео: AVC 4551 Kbps 1280 x 536 (2.388) 25.000 fps
Аудио: AC-3 448 Kbps 6 channels, 48.0 KHz
Формат субтитров: softsub (SRT)
MediaInfo | Log
Log
x264 [info]: frame I:708 Avg QP:13.86 size:126127
x264 [info]: frame P:25613 Avg QP:15.23 size: 44033
x264 [info]: frame B:98174 Avg QP:17.16 size: 17089
x264 [info]: consecutive B-frames: 2.1% 2.5% 6.9% 11.4% 14.3% 47.5% 6.9% 1.5% 3.7% 1.3% 1.9%
x264 [info]: mb I I16..4: 9.1% 72.6% 18.3%
x264 [info]: mb P I16..4: 0.8% 17.3% 1.6% P16..4: 27.4% 31.0% 15.4% 3.1% 0.4% skip: 2.9%
x264 [info]: mb B I16..4: 0.1% 3.1% 0.1% B16..8: 31.9% 21.4% 4.3% direct: 9.7% skip:29.4% L0:42.8% L1:42.0% BI:15.1%
x264 [info]: 8x8 transform intra:88.3% inter:53.2%
x264 [info]: direct mvs spatial:100.0% temporal:0.0%
x264 [info]: coded y,uvDC,uvAC intra: 92.6% 78.6% 66.6% inter: 36.9% 27.6% 6.2%
x264 [info]: i16 v,h,dc,p: 28% 11% 13% 48%
x264 [info]: i8 v,h,dc,ddl,ddr,vr,hd,vl,hu: 13% 10% 16% 8% 10% 10% 10% 11% 12%
x264 [info]: i4 v,h,dc,ddl,ddr,vr,hd,vl,hu: 17% 9% 10% 8% 13% 13% 11% 10% 11%
x264 [info]: i8c dc,h,v,p: 38% 31% 20% 11%
x264 [info]: Weighted P-Frames: Y:2.6% UV:1.3%
x264 [info]: ref P L0: 46.2% 10.1% 17.6% 6.8% 5.8% 4.4% 3.9% 2.5% 2.5% 0.2% 0.0%
x264 [info]: ref B L0: 71.2% 12.6% 6.4% 3.4% 2.6% 2.2% 1.2% 0.4%
x264 [info]: ref B L1: 91.2% 8.8%
x264 [info]: kb/s:4650.52
x264 [total]: encoded 124495 frames, 8.10 fps, 4650.52 kb/s, duration 4:16:18.00
Format : Matroska
Format version : Version 4 / Version 2
File size : 2.96 GiB
Duration : 1h 22mn
Overall bit rate : 5 100 Kbps
Encoded date : UTC 2015-11-20 23:31:28
Writing application : mkvmerge v6.7.0 ('Back to the Ground') 32bit built on Jan 8 2014 15:03:17
Writing library : libebml v1.3.0 + libmatroska v1.4.1
Video
ID : 1
Format : AVC
Format/Info : Advanced Video Codec
Format profile : High@L4.1
Format settings, CABAC : Yes
Format settings, ReFrames : 9 frames
Codec ID : V_MPEG4/ISO/AVC
Duration : 1h 22mn
Bit rate : 4 551 Kbps
Width : 1 280 pixels
Height : 536 pixels
Display aspect ratio : 2.40:1
Frame rate mode : Constant
Frame rate : 25.000 fps
Color space : YUV
Chroma subsampling : 4:2:0
Bit depth : 8 bits
Scan type : Progressive
Bits/(Pixel*Frame) : 0.265
Stream size : 2.64 GiB (89%)
Title : Mandariinid (2013) [***] 720p
Writing library : x264 core 148 r2579kMod 73ae2d1
Encoding settings : cabac=1 / ref=9 / deblock=1:-3:-2 / analyse=0x3:0x133 / me=umh / subme=11 / psy=1 / fade_compensate=0.00 / psy_rd=1.00:0.05 / mixed_ref=1 / me_range=32 / chroma_me=1 / trellis=2 / 8x8dct=1 / cqm=0 / deadzone=21,11 / fast_pskip=0 / chroma_qp_offset=-3 / threads=12 / lookahead_threads=3 / sliced_threads=0 / nr=0 / decimate=1 / interlaced=0 / bluray_compat=0 / constrained_intra=0 / fgo=0 / bframes=10 / b_pyramid=2 / b_adapt=2 / b_bias=0 / direct=3 / weightb=1 / open_gop=0 / weightp=2 / keyint=250 / keyint_min=25 / scenecut=40 / intra_refresh=0 / rc_lookahead=60 / rc=crf / mbtree=0 / crf=16.5000 / qcomp=0.60 / qpmin=0 / qpmax=69 / qpstep=4 / vbv_maxrate=50000 / vbv_bufsize=62500 / crf_max=0.0 / nal_hrd=none / filler=0 / ip_ratio=1.40 / pb_ratio=1.30 / aq=3:0.90
Language : Estonian
Default : Yes
Forced : No
Audio
ID : 2
Format : AC-3
Format/Info : Audio Coding 3
Mode extension : CM (complete main)
Format settings, Endianness : Big
Codec ID : A_AC3
Duration : 1h 22mn
Bit rate mode : Constant
Bit rate : 448 Kbps
Channel(s) : 6 channels
Channel positions : Front: L C R, Side: L R, LFE
Sampling rate : 48.0 KHz
Compression mode : Lossy
Stream size : 266 MiB (9%)
Title : Original (Est, Rus)
Language : Estonian
Default : Yes
Forced : No
Text
ID : 3
Format : UTF-8
Codec ID : S_TEXT/UTF8
Codec ID/Info : UTF-8 Plain Text
Title : Forced
Language : Russian
Default : Yes
Forced : No
Menu
00:00:00.000 : en:00:00:00.000
00:00:00.360 : en:00:00:00.360
00:09:45.440 : en:00:09:45.440
00:21:34.920 : en:00:21:34.920
00:31:32.079 : en:00:31:32.079
00:42:45.440 : en:00:42:45.440
00:49:31.599 : en:00:49:31.599
01:04:18.000 : en:01:04:18.000
01:15:23.479 : en:01:15:23.479
Скриншоты
Скачать

Скачать торрент!

Как скачивать? · Что такое торрент? · Рейтинг и ограничения

Сайт не распространяет и не хранит электронные версии произведений, а лишь предоставляет доступ к создаваемому пользователями каталогу ссылок на торрент-файлы, которые содержат только списки хеш-сумм

[Профиль] [ЛС]
Показать сообщения:    
Ответить на тему

Текущее время: Сегодня 10:08

Часовой пояс: GMT + 4



Вы не можете начинать темы
Вы не можете отвечать на сообщения
Вы не можете редактировать свои сообщения
Вы не можете удалять свои сообщения
Вы не можете голосовать в опросах
Вы не можете прикреплять файлы к сообщениям
Вы не можете скачивать файлы